  0
SECTION
  2
HEADER
  9
$ACADVER
  1
AC1015
  9
$ACADMAINTVER
 70
    13
  9
$DWGCODEPAGE
  3
ANSI_1252
  9
$INSBASE
 10
0.0
 20
0.0
 30
0.0
  9
$EXTMIN
 10
0.0
 20
0.0
 30
0.0
  9
$EXTMAX
 10
27.94
 20
21.59
 30
0.0
  9
$LIMMIN
 10
0.0
 20
0.0
  9
$LIMMAX
 10
27.94
 20
21.59
  9
$ORTHOMODE
 70
     0
  9
$REGENMODE
 70
     1
  9
$FILLMODE
 70
     1
  9
$QTEXTMODE
 70
     0
  9
$MIRRTEXT
 70
     1
  9
$LTSCALE
 40
0.015748031496063
  9
$ATTMODE
 70
     1
  9
$TEXTSIZE
 40
0.2
  9
$TRACEWID
 40
0.05
  9
$TEXTSTYLE
  7
Standard
  9
$CLAYER
  8
0
  9
$CELTYPE
  6
ByLayer
  9
$CECOLOR
 62
   256
  9
$CELTSCALE
 40
1.0
  9
$DISPSILH
 70
     0
  9
$DIMSCALE
 40
1.0
  9
$DIMASZ
 40
0.0708661417322835
  9
$DIMEXO
 40
0.0625
  9
$DIMDLI
 40
0.38
  9
$DIMRND
 40
0.0
  9
$DIMDLE
 40
0.0
  9
$DIMEXE
 40
0.18
  9
$DIMTP
 40
0.0
  9
$DIMTM
 40
0.0
  9
$DIMTXT
 40
0.3174999952316284
  9
$DIMCEN
 40
0.09
  9
$DIMTSZ
 40
0.0
  9
$DIMTOL
 70
     0
  9
$DIMLIM
 70
     0
  9
$DIMTIH
 70
     1
  9
$DIMTOH
 70
     1
  9
$DIMSE1
 70
     0
  9
$DIMSE2
 70
     0
  9
$DIMTAD
 70
     0
  9
$DIMZIN
 70
     0
  9
$DIMBLK
  1

  9
$DIMASO
 70
     1
  9
$DIMSHO
 70
     1
  9
$DIMPOST
  1

  9
$DIMAPOST
  1

  9
$DIMALT
 70
     0
  9
$DIMALTD
 70
     2
  9
$DIMALTF
 40
25.4
  9
$DIMLFAC
 40
1.0
  9
$DIMTOFL
 70
     0
  9
$DIMTVP
 40
0.0
  9
$DIMTIX
 70
     0
  9
$DIMSOXD
 70
     0
  9
$DIMSAH
 70
     0
  9
$DIMBLK1
  1

  9
$DIMBLK2
  1

  9
$DIMSTYLE
  2
2dTranslatorDimStyle
  9
$DIMCLRD
 70
     0
  9
$DIMCLRE
 70
     0
  9
$DIMCLRT
 70
     0
  9
$DIMTFAC
 40
1.0
  9
$DIMGAP
 40
0.09
  9
$DIMJUST
 70
     0
  9
$DIMSD1
 70
     0
  9
$DIMSD2
 70
     0
  9
$DIMTOLJ
 70
     1
  9
$DIMTZIN
 70
     0
  9
$DIMALTZ
 70
     0
  9
$DIMALTTZ
 70
     0
  9
$DIMUPT
 70
     0
  9
$DIMDEC
 70
     4
  9
$DIMTDEC
 70
     4
  9
$DIMALTU
 70
     2
  9
$DIMALTTD
 70
     2
  9
$DIMTXSTY
  7
Standard
  9
$DIMAUNIT
 70
     0
  9
$DIMADEC
 70
     0
  9
$DIMALTRND
 40
0.0
  9
$DIMAZIN
 70
     0
  9
$DIMDSEP
 70
    46
  9
$DIMATFIT
 70
     3
  9
$DIMFRAC
 70
     0
  9
$DIMLDRBLK
  1

  9
$DIMLUNIT
 70
     2
  9
$DIMLWD
 70
    -2
  9
$DIMLWE
 70
    -2
  9
$DIMTMOVE
 70
     0
  9
$LUNITS
 70
     2
  9
$LUPREC
 70
     4
  9
$SKETCHINC
 40
0.1
  9
$FILLETRAD
 40
0.0
  9
$AUNITS
 70
     0
  9
$AUPREC
 70
     0
  9
$MENU
  1
.
  9
$ELEVATION
 40
0.0
  9
$PELEVATION
 40
0.0
  9
$THICKNESS
 40
0.0
  9
$LIMCHECK
 70
     0
  9
$CHAMFERA
 40
0.0
  9
$CHAMFERB
 40
0.0
  9
$CHAMFERC
 40
0.0
  9
$CHAMFERD
 40
0.0
  9
$SKPOLY
 70
     0
  9
$TDCREATE
 40
2453432.903468935
  9
$TDUCREATE
 40
2453433.111802268
  9
$TDUPDATE
 40
2453432.903468935
  9
$TDUUPDATE
 40
2453433.111802268
  9
$TDINDWG
 40
0.0000990972
  9
$TDUSRTIMER
 40
0.0000990972
  9
$USRTIMER
 70
     1
  9
$ANGBASE
 50
0.0
  9
$ANGDIR
 70
     0
  9
$PDMODE
 70
     0
  9
$PDSIZE
 40
0.0
  9
$PLINEWID
 40
0.0
  9
$SPLFRAME
 70
     0
  9
$SPLINETYPE
 70
     6
  9
$SPLINESEGS
 70
     8
  9
$HANDSEED
  5
2867
  9
$SURFTAB1
 70
     6
  9
$SURFTAB2
 70
     6
  9
$SURFTYPE
 70
     6
  9
$SURFU
 70
     6
  9
$SURFV
 70
     6
  9
$UCSBASE
  2

  9
$UCSNAME
  2

  9
$UCSORG
 10
0.0
 20
0.0
 30
0.0
  9
$UCSXDIR
 10
1.0
 20
0.0
 30
0.0
  9
$UCSYDIR
 10
0.0
 20
1.0
 30
0.0
  9
$UCSORTHOREF
  2

  9
$UCSORTHOVIEW
 70
     0
  9
$UCSORGTOP
 10
0.0
 20
0.0
 30
0.0
  9
$UCSORGBOTTOM
 10
0.0
 20
0.0
 30
0.0
  9
$UCSORGLEFT
 10
0.0
 20
0.0
 30
0.0
  9
$UCSORGRIGHT
 10
0.0
 20
0.0
 30
0.0
  9
$UCSORGFRONT
 10
0.0
 20
0.0
 30
0.0
  9
$UCSORGBACK
 10
0.0
 20
0.0
 30
0.0
  9
$PUCSBASE
  2

  9
$PUCSNAME
  2

  9
$PUCSORG
 10
0.0
 20
0.0
 30
0.0
  9
$PUCSXDIR
 10
1.0
 20
0.0
 30
0.0
  9
$PUCSYDIR
 10
0.0
 20
1.0
 30
0.0
  9
$PUCSORTHOREF
  2

  9
$PUCSORTHOVIEW
 70
     0
  9
$PUCSORGTOP
 10
0.0
 20
0.0
 30
0.0
  9
$PUCSORGBOTTOM
 10
0.0
 20
0.0
 30
0.0
  9
$PUCSORGLEFT
 10
0.0
 20
0.0
 30
0.0
  9
$PUCSORGRIGHT
 10
0.0
 20
0.0
 30
0.0
  9
$PUCSORGFRONT
 10
0.0
 20
0.0
 30
0.0
  9
$PUCSORGBACK
 10
0.0
 20
0.0
 30
0.0
  9
$USERI1
 70
     0
  9
$USERI2
 70
     0
  9
$USERI3
 70
     0
  9
$USERI4
 70
     0
  9
$USERI5
 70
     0
  9
$USERR1
 40
0.0
  9
$USERR2
 40
0.0
  9
$USERR3
 40
0.0
  9
$USERR4
 40
0.0
  9
$USERR5
 40
0.0
  9
$WORLDVIEW
 70
     1
  9
$SHADEDGE
 70
     3
  9
$SHADEDIF
 70
    70
  9
$TILEMODE
 70
     0
  9
$MAXACTVP
 70
    64
  9
$PINSBASE
 10
0.0
 20
0.0
 30
0.0
  9
$PLIMCHECK
 70
     0
  9
$PEXTMIN
 10
0.0
 20
0.0
 30
0.0
  9
$PEXTMAX
 10
27.94
 20
21.59
 30
0.0
  9
$PLIMMIN
 10
0.0
 20
0.0
  9
$PLIMMAX
 10
27.94
 20
21.59
  9
$UNITMODE
 70
     0
  9
$VISRETAIN
 70
     1
  9
$PLINEGEN
 70
     0
  9
$PSLTSCALE
 70
     1
  9
$TREEDEPTH
 70
  3020
  9
$CMLSTYLE
  2
Standard
  9
$CMLJUST
 70
     0
  9
$CMLSCALE
 40
1.0
  9
$PROXYGRAPHICS
 70
     1
  9
$MEASUREMENT
 70
     0
  9
$CELWEIGHT
370
    -1
  9
$ENDCAPS
280
     0
  9
$JOINSTYLE
280
     0
  9
$LWDISPLAY
290
     1
  9
$INSUNITS
 70
     0
  9
$HYPERLINKBASE
  1

  9
$STYLESHEET
  1

  9
$XEDIT
290
     1
  9
$CEPSNTYPE
380
     0
  9
$PSTYLEMODE
290
     1
  9
$FINGERPRINTGUID
  2
{94217905-043F-42DA-8868-450794188CC5}
  9
$VERSIONGUID
  2
{C8271D0C-43DD-4549-82C1-E172FFBEF42D}
  9
$EXTNAMES
290
     1
  9
$PSVPSCALE
 40
0.0
  9
$OLESTARTUP
290
     0
  0
ENDSEC
  0
SECTION
  2
CLASSES
  0
CLASS
  1
ACDBDICTIONARYWDFLT
  2
AcDbDictionaryWithDefault
  3
AutoCAD 2000
 90
        0
280
     0
281
     0
  0
CLASS
  1
ACDBPLACEHOLDER
  2
AcDbPlaceHolder
  3
AutoCAD 2000
 90
        0
280
     0
281
     0
  0
CLASS
  1
LAYOUT
  2
AcDbLayout
  3
AutoCAD 2000
 90
        0
280
     0
281
     0
  0
CLASS
  1
DICTIONARYVAR
  2
AcDbDictionaryVar
  3
AutoCAD 2000
 90
        0
280
     0
281
     0
  0
ENDSEC
  0
SECTION
  2
TABLES
  0
TABLE
  2
VPORT
  5
8
330
0
100
AcDbSymbolTable
 70
     1
  0
VPORT
  5
13
330
8
100
AcDbSymbolTableRecord
100
AcDbViewportTableRecord
  2
*Active
 70
     0
 10
0.0
 20
0.0
 11
1.0
 21
1.0
 12
500.0
 22
500.0
 13
0.0
 23
0.0
 14
1.0
 24
1.0
 15
0.0
 25
0.0
 16
0.0
 26
0.0
 36
1.0
 17
0.0
 27
0.0
 37
0.0
 40
12.0
 41
1.0
 42
50.0
 43
0.0
 44
0.0
 50
0.0
 51
0.0
 71
     0
 72
   100
 73
     1
 74
     1
 75
     0
 76
     0
 77
     0
 78
     0
281
     0
 65
     1
110
0.0
120
0.0
130
0.0
111
1.0
121
0.0
131
0.0
112
0.0
122
1.0
132
0.0
 79
     0
146
0.0
  0
ENDTAB
  0
TABLE
  2
LTYPE
  5
5
330
0
100
AcDbSymbolTable
 70
    46
  0
LTYPE
  5
14
330
5
100
AcDbSymbolTableRecord
100
AcDbLinetypeTableRecord
  2
ByBlock
 70
     0
  3

 72
    65
 73
     0
 40
0.0
  0
LTYPE
  5
15
330
5
100
AcDbSymbolTableRecord
100
AcDbLinetypeTableRecord
  2
ByLayer
 70
     0
  3

 72
    65
 73
     0
 40
0.0
  0
LTYPE
  5
16
330
5
100
AcDbSymbolTableRecord
100
AcDbLinetypeTableRecord
  2
Continuous
 70
     0
  3
Solid line
 72
    65
 73
     0
 40
0.0
  0
LTYPE
  5
28
330
5
100
AcDbSymbolTableRecord
100
AcDbLinetypeTableRecord
  2
BORDER
 70
     0
  3
Border __ __ . __ __ . __ __ . __ __ . __ __ .
 72
    65
 73
     6
 40
1.75
 49
0.5
 74
     0
 49
-0.25
 74
     0
 49
0.5
 74
     0
 49
-0.25
 74
     0
 49
0.0
 74
     0
 49
-0.25
 74
     0
  0
LTYPE
  5
29
330
5
100
AcDbSymbolTableRecord
100
AcDbLinetypeTableRecord
  2
BORDER2
 70
     0
  3
Border (.5x) __.__.__.__.__.__.__.__.__.__.__.
 72
    65
 73
     6
 40
0.875
 49
0.25
 74
     0
 49
-0.125
 74
     0
 49
0.25
 74
     0
 49
-0.125
 74
     0
 49
0.0
 74
     0
 49
-0.125
 74
     0
  0
LTYPE
  5
2A
330
5
100
AcDbSymbolTableRecord
100
AcDbLinetypeTableRecord
  2
BORDERX2
 70
     0
  3
Border (2x) ____  ____  .  ____  ____  .  ___
 72
    65
 73
     6
 40
3.5
 49
1.0
 74
     0
 49
-0.5
 74
     0
 49
1.0
 74
     0
 49
-0.5
 74
     0
 49
0.0
 74
     0
 49
-0.5
 74
     0
  0
LTYPE
  5
2B
330
5
100
AcDbSymbolTableRecord
100
AcDbLinetypeTableRecord
  2
CENTER
 70
     0
  3
Center ____ _ ____ _ ____ _ ____ _ ____ _ ____
 72
    65
 73
     4
 40
2.0
 49
1.25
 74
     0
 49
-0.25
 74
     0
 49
0.25
 74
     0
 49
-0.25
 74
     0
  0
LTYPE
  5
2C
330
5
100
AcDbSymbolTableRecord
100
AcDbLinetypeTableRecord
  2
CENTER2
 70
     0
  3
Center (.5x) ___ _ ___ _ ___ _ ___ _ ___ _ ___
 72
    65
 73
     4
 40
1.125
 49
0.75
 74
     0
 49
-0.125
 74
     0
 49
0.125
 74
     0
 49
-0.125
 74
     0
  0
LTYPE
  5
2D
330
5
100
AcDbSymbolTableRecord
100
AcDbLinetypeTableRecord
  2
CENTERX2
 70
     0
  3
Center (2x) ________  __  ________  __  _____
 72
    65
 73
     4
 40
4.0
 49
2.5
 74
     0
 49
-0.5
 74
     0
 49
0.5
 74
     0
 49
-0.5
 74
     0
  0
LTYPE
  5
2E
330
5
100
AcDbSymbolTableRecord
100
AcDbLinetypeTableRecord
  2
DASHDOT
 70
     0
  3
Dash dot __ . __ . __ . __ . __ . __ . __ . __
 72
    65
 73
     4
 40
1.0
 49
0.5
 74
     0
 49
-0.25
 74
     0
 49
0.0
 74
     0
 49
-0.25
 74
     0
  0
LTYPE
  5
2F
330
5
100
AcDbSymbolTableRecord
100
AcDbLinetypeTableRecord
  2
DASHDOT2
 70
     0
  3
Dash dot (.5x) _._._._._._._._._._._._._._._.
 72
    65
 73
     4
 40
0.5
 49
0.25
 74
     0
 49
-0.125
 74
     0
 49
0.0
 74
     0
 49
-0.125
 74
     0
  0
LTYPE
  5
30
330
5
100
AcDbSymbolTableRecord
100
AcDbLinetypeTableRecord
  2
DASHDOTX2
 70
     0
  3
Dash dot (2x) ____  .  ____  .  ____  .  ___
 72
    65
 73
     4
 40
2.0
 49
1.0
 74
     0
 49
-0.5
 74
     0
 49
0.0
 74
     0
 49
-0.5
 74
     0
  0
LTYPE
  5
31
330
5
100
AcDbSymbolTableRecord
100
AcDbLinetypeTableRecord
  2
DASHED
 70
     0
  3
Dashed __ __ __ __ __ __ __ __ __ __ __ __ __ _
 72
    65
 73
     2
 40
0.75
 49
0.5
 74
     0
 49
-0.25
 74
     0
  0
LTYPE
  5
32
330
5
100
AcDbSymbolTableRecord
100
AcDbLinetypeTableRecord
  2
DASHED2
 70
     0
  3
Dashed (.5x) _ _ _ _ _ _ _ _ _ _ _ _ _ _ _ _ _
 72
    65
 73
     2
 40
0.375
 49
0.25
 74
     0
 49
-0.125
 74
     0
  0
LTYPE
  5
33
330
5
100
AcDbSymbolTableRecord
100
AcDbLinetypeTableRecord
  2
DASHEDX2
 70
     0
  3
Dashed (2x) ____  ____  ____  ____  ____  ___
 72
    65
 73
     2
 40
1.5
 49
1.0
 74
     0
 49
-0.5
 74
     0
  0
LTYPE
  5
34
330
5
100
AcDbSymbolTableRecord
100
AcDbLinetypeTableRecord
  2
DIVIDE
 70
     0
  3
Divide ____ . . ____ . . ____ . . ____ . . ____
 72
    65
 73
     6
 40
1.25
 49
0.5
 74
     0
 49
-0.25
 74
     0
 49
0.0
 74
     0
 49
-0.25
 74
     0
 49
0.0
 74
     0
 49
-0.25
 74
     0
  0
LTYPE
  5
35
330
5
100
AcDbSymbolTableRecord
100
AcDbLinetypeTableRecord
  2
DIVIDE2
 70
     0
  3
Divide (.5x) __..__..__..__..__..__..__..__.._
 72
    65
 73
     6
 40
0.625
 49
0.25
 74
     0
 49
-0.125
 74
     0
 49
0.0
 74
     0
 49
-0.125
 74
     0
 49
0.0
 74
     0
 49
-0.125
 74
     0
  0
LTYPE
  5
36
330
5
100
AcDbSymbolTableRecord
100
AcDbLinetypeTableRecord
  2
DIVIDEX2
 70
     0
  3
Divide (2x) ________  .  .  ________  .  .  _
 72
    65
 73
     6
 40
2.5
 49
1.0
 74
     0
 49
-0.5
 74
     0
 49
0.0
 74
     0
 49
-0.5
 74
     0
 49
0.0
 74
     0
 49
-0.5
 74
     0
  0
LTYPE
  5
37
330
5
100
AcDbSymbolTableRecord
100
AcDbLinetypeTableRecord
  2
DOT
 70
     0
  3
Dot . . . . . . . . . . . . . . . . . . . . . .
 72
    65
 73
     2
 40
0.25
 49
0.0
 74
     0
 49
-0.25
 74
     0
  0
LTYPE
  5
38
330
5
100
AcDbSymbolTableRecord
100
AcDbLinetypeTableRecord
  2
DOT2
 70
     0
  3
Dot (.5x) .....................................
 72
    65
 73
     2
 40
0.125
 49
0.0
 74
     0
 49
-0.125
 74
     0
  0
LTYPE
  5
39
330
5
100
AcDbSymbolTableRecord
100
AcDbLinetypeTableRecord
  2
DOTX2
 70
     0
  3
Dot (2x) .  .  .  .  .  .  .  .  .  .  .  .  . 
 72
    65
 73
     2
 40
0.5
 49
0.0
 74
     0
 49
-0.5
 74
     0
  0
LTYPE
  5
3A
330
5
100
AcDbSymbolTableRecord
100
AcDbLinetypeTableRecord
  2
HIDDEN
 70
     0
  3
Hidden __ __ __ __ __ __ __ __ __ __ __ __ __ _
 72
    65
 73
     2
 40
0.375
 49
0.25
 74
     0
 49
-0.125
 74
     0
  0
LTYPE
  5
3B
330
5
100
AcDbSymbolTableRecord
100
AcDbLinetypeTableRecord
  2
HIDDEN2
 70
     0
  3
Hidden (.5x) _ _ _ _ _ _ _ _ _ _ _ _ _ _ _ _ _
 72
    65
 73
     2
 40
0.1875
 49
0.125
 74
     0
 49
-0.0625
 74
     0
  0
LTYPE
  5
3C
330
5
100
AcDbSymbolTableRecord
100
AcDbLinetypeTableRecord
  2
HIDDENX2
 70
     0
  3
Hidden (2x) ____ ____ ____ ____ ____ ____ ____
 72
    65
 73
     2
 40
0.75
 49
0.5
 74
     0
 49
-0.25
 74
     0
  0
LTYPE
  5
3D
330
5
100
AcDbSymbolTableRecord
100
AcDbLinetypeTableRecord
  2
PHANTOM
 70
     0
  3
Phantom ______  __  __  ______  __  __  ______
 72
    65
 73
     6
 40
2.5
 49
1.25
 74
     0
 49
-0.25
 74
     0
 49
0.25
 74
     0
 49
-0.25
 74
     0
 49
0.25
 74
     0
 49
-0.25
 74
     0
  0
LTYPE
  5
3E
330
5
100
AcDbSymbolTableRecord
100
AcDbLinetypeTableRecord
  2
PHANTOM2
 70
     0
  3
Phantom (.5x) ___ _ _ ___ _ _ ___ _ _ ___ _ _
 72
    65
 73
     6
 40
1.25
 49
0.625
 74
     0
 49
-0.125
 74
     0
 49
0.125
 74
     0
 49
-0.125
 74
     0
 49
0.125
 74
     0
 49
-0.125
 74
     0
  0
LTYPE
  5
3F
330
5
100
AcDbSymbolTableRecord
100
AcDbLinetypeTableRecord
  2
PHANTOMX2
 70
     0
  3
Phantom (2x) ____________    ____    ____   _
 72
    65
 73
     6
 40
5.0
 49
2.5
 74
     0
 49
-0.5
 74
     0
 49
0.5
 74
     0
 49
-0.5
 74
     0
 49
0.5
 74
     0
 49
-0.5
 74
     0
  0
LTYPE
  5
40
330
5
100
AcDbSymbolTableRecord
100
AcDbLinetypeTableRecord
  2
ACAD_ISO02W100
 70
     0
  3
ISO dash __ __ __ __ __ __ __ __ __ __ __ __ __
 72
    65
 73
     2
 40
15.0
 49
12.0
 74
     0
 49
-3.0
 74
     0
  0
LTYPE
  5
41
330
5
100
AcDbSymbolTableRecord
100
AcDbLinetypeTableRecord
  2
ACAD_ISO03W100
 70
     0
  3
ISO dash space __    __    __    __    __    __
 72
    65
 73
     2
 40
30.0
 49
12.0
 74
     0
 49
-18.0
 74
     0
  0
LTYPE
  5
42
330
5
100
AcDbSymbolTableRecord
100
AcDbLinetypeTableRecord
  2
ACAD_ISO04W100
 70
     0
  3
ISO long-dash dot ____ . ____ . ____ . ____ . _
 72
    65
 73
     4
 40
30.0
 49
24.0
 74
     0
 49
-3.0
 74
     0
 49
0.0
 74
     0
 49
-3.0
 74
     0
  0
LTYPE
  5
43
330
5
100
AcDbSymbolTableRecord
100
AcDbLinetypeTableRecord
  2
ACAD_ISO05W100
 70
     0
  3
ISO long-dash double-dot ____ .. ____ .. ____ .
 72
    65
 73
     6
 40
33.0
 49
24.0
 74
     0
 49
-3.0
 74
     0
 49
0.0
 74
     0
 49
-3.0
 74
     0
 49
0.0
 74
     0
 49
-3.0
 74
     0
  0
LTYPE
  5
44
330
5
100
AcDbSymbolTableRecord
100
AcDbLinetypeTableRecord
  2
ACAD_ISO06W100
 70
     0
  3
ISO long-dash triple-dot ____ ... ____ ... ____
 72
    65
 73
     8
 40
36.0
 49
24.0
 74
     0
 49
-3.0
 74
     0
 49
0.0
 74
     0
 49
-3.0
 74
     0
 49
0.0
 74
     0
 49
-3.0
 74
     0
 49
0.0
 74
     0
 49
-3.0
 74
     0
  0
LTYPE
  5
45
330
5
100
AcDbSymbolTableRecord
100
AcDbLinetypeTableRecord
  2
ACAD_ISO07W100
 70
     0
  3
ISO dot . . . . . . . . . . . . . . . . . . . .
 72
    65
 73
     2
 40
3.0
 49
0.0
 74
     0
 49
-3.0
 74
     0
  0
LTYPE
  5
46
330
5
100
AcDbSymbolTableRecord
100
AcDbLinetypeTableRecord
  2
ACAD_ISO08W100
 70
     0
  3
ISO long-dash short-dash ____ __ ____ __ ____ _
 72
    65
 73
     4
 40
36.0
 49
24.0
 74
     0
 49
-3.0
 74
     0
 49
6.0
 74
     0
 49
-3.0
 74
     0
  0
LTYPE
  5
47
330
5
100
AcDbSymbolTableRecord
100
AcDbLinetypeTableRecord
  2
ACAD_ISO09W100
 70
     0
  3
ISO long-dash double-short-dash ____ __ __ ____
 72
    65
 73
     6
 40
45.0
 49
24.0
 74
     0
 49
-3.0
 74
     0
 49
6.0
 74
     0
 49
-3.0
 74
     0
 49
6.0
 74
     0
 49
-3.0
 74
     0
  0
LTYPE
  5
48
330
5
100
AcDbSymbolTableRecord
100
AcDbLinetypeTableRecord
  2
ACAD_ISO10W100
 70
     0
  3
ISO dash dot __ . __ . __ . __ . __ . __ . __ .
 72
    65
 73
     4
 40
18.0
 49
12.0
 74
     0
 49
-3.0
 74
     0
 49
0.0
 74
     0
 49
-3.0
 74
     0
  0
LTYPE
  5
49
330
5
100
AcDbSymbolTableRecord
100
AcDbLinetypeTableRecord
  2
ACAD_ISO11W100
 70
     0
  3
ISO double-dash dot __ __ . __ __ . __ __ . __ 
 72
    65
 73
     6
 40
33.0
 49
12.0
 74
     0
 49
-3.0
 74
     0
 49
12.0
 74
     0
 49
-3.0
 74
     0
 49
0.0
 74
     0
 49
-3.0
 74
     0
  0
LTYPE
  5
4A
330
5
100
AcDbSymbolTableRecord
100
AcDbLinetypeTableRecord
  2
ACAD_ISO12W100
 70
     0
  3
ISO dash double-dot __ . . __ . . __ . . __ . .
 72
    65
 73
     6
 40
21.0
 49
12.0
 74
     0
 49
-3.0
 74
     0
 49
0.0
 74
     0
 49
-3.0
 74
     0
 49
0.0
 74
     0
 49
-3.0
 74
     0
  0
LTYPE
  5
4B
330
5
100
AcDbSymbolTableRecord
100
AcDbLinetypeTableRecord
  2
ACAD_ISO13W100
 70
     0
  3
ISO double-dash double-dot __ __ . . __ __ . . 
 72
    65
 73
     8
 40
36.0
 49
12.0
 74
     0
 49
-3.0
 74
     0
 49
12.0
 74
     0
 49
-3.0
 74
     0
 49
0.0
 74
     0
 49
-3.0
 74
     0
 49
0.0
 74
     0
 49
-3.0
 74
     0
  0
LTYPE
  5
4C
330
5
100
AcDbSymbolTableRecord
100
AcDbLinetypeTableRecord
  2
ACAD_ISO14W100
 70
     0
  3
ISO dash triple-dot __ . . . __ . . . __ . . . 
 72
    65
 73
     8
 40
24.0
 49
12.0
 74
     0
 49
-3.0
 74
     0
 49
0.0
 74
     0
 49
-3.0
 74
     0
 49
0.0
 74
     0
 49
-3.0
 74
     0
 49
0.0
 74
     0
 49
-3.0
 74
     0
  0
LTYPE
  5
4D
330
5
100
AcDbSymbolTableRecord
100
AcDbLinetypeTableRecord
  2
ACAD_ISO15W100
 70
     0
  3
ISO double-dash triple-dot __ __ . . . __ __ . 
 72
    65
 73
    10
 40
39.0
 49
12.0
 74
     0
 49
-3.0
 74
     0
 49
12.0
 74
     0
 49
-3.0
 74
     0
 49
0.0
 74
     0
 49
-3.0
 74
     0
 49
0.0
 74
     0
 49
-3.0
 74
     0
 49
0.0
 74
     0
 49
-3.0
 74
     0
  0
LTYPE
  5
50
330
5
100
AcDbSymbolTableRecord
100
AcDbLinetypeTableRecord
  2
FENCELINE1
 70
     0
  3
Fenceline circle ----0-----0----0-----0----0---
 72
    65
 73
     4
 40
1.45
 49
0.25
 74
     0
 49
-0.1
 74
     4
 75
   133
340
4F
 46
0.1
 50
0.0
 44
-0.1
 45
0.0
 49
-0.1
 74
     0
 49
1.0
 74
     0
  0
LTYPE
  5
51
330
5
100
AcDbSymbolTableRecord
100
AcDbLinetypeTableRecord
  2
FENCELINE2
 70
     0
  3
Fenceline square ----[]-----[]----[]-----[]----
 72
    65
 73
     4
 40
1.45
 49
0.25
 74
     0
 49
-0.1
 74
     4
 75
   132
340
4F
 46
0.1
 50
0.0
 44
-0.1
 45
0.0
 49
-0.1
 74
     0
 49
1.0
 74
     0
  0
LTYPE
  5
52
330
5
100
AcDbSymbolTableRecord
100
AcDbLinetypeTableRecord
  2
TRACKS
 70
     0
  3
Tracks -|-|-|-|-|-|-|-|-|-|-|-|-|-|-|-|-|-|-|-|
 72
    65
 73
     2
 40
0.3
 49
0.15
 74
     4
 75
   130
340
4F
 46
0.25
 50
0.0
 44
0.0
 45
0.0
 49
0.15
 74
     0
  0
LTYPE
  5
53
330
5
100
AcDbSymbolTableRecord
100
AcDbLinetypeTableRecord
  2
BATTING
 70
     0
  3
Batting SSSSSSSSSSSSSSSSSSSSSSSSSSSSSSSSSSSSSSS
 72
    65
 73
     4
 40
0.4001000000000001
 49
0.0001
 74
     0
 49
-0.1
 74
     4
 75
   134
340
4F
 46
0.1
 50
0.0
 44
-0.1
 45
0.0
 49
-0.2
 74
     4
 75
   134
340
4F
 46
0.1
 50
180.0
 44
0.1
 45
0.0
 49
-0.1
 74
     0
  0
LTYPE
  5
54
330
5
100
AcDbSymbolTableRecord
100
AcDbLinetypeTableRecord
  2
HOT_WATER_SUPPLY
 70
     0
  3
Hot water supply ---- HW ---- HW ---- HW ----
 72
    65
 73
     3
 40
0.9
 49
0.5
 74
     0
 49
-0.2
 74
     2
 75
     0
340
11
 46
0.1
 50
0.0
 44
-0.1
 45
-0.05
  9
HW
 49
-0.2
 74
     0
  0
LTYPE
  5
55
330
5
100
AcDbSymbolTableRecord
100
AcDbLinetypeTableRecord
  2
GAS_LINE
 70
     0
  3
Gas line ----GAS----GAS----GAS----GAS----GAS---
 72
    65
 73
     3
 40
0.95
 49
0.5
 74
     0
 49
-0.2
 74
     2
 75
     0
340
11
 46
0.1
 50
0.0
 44
-0.1
 45
-0.05
  9
GAS
 49
-0.25
 74
     0
  0
LTYPE
  5
56
330
5
100
AcDbSymbolTableRecord
100
AcDbLinetypeTableRecord
  2
ZIGZAG
 70
     0
  3
Zig zag /\/\/\/\/\/\/\/\/\/\/\/\/\/\/\/\/\/\/\/
 72
    65
 73
     4
 40
0.8001000000000001
 49
0.0001
 74
     0
 49
-0.2
 74
     4
 75
   131
340
4F
 46
0.2
 50
0.0
 44
-0.2
 45
0.0
 49
-0.4
 74
     4
 75
   131
340
4F
 46
0.2
 50
180.0
 44
0.2
 45
0.0
 49
-0.2
 74
     0
  0
ENDTAB
  0
TABLE
  2
LAYER
  5
2
330
0
100
AcDbSymbolTable
 70
    23
  0
LAYER
  5
10
330
2
100
AcDbSymbolTableRecord
100
AcDbLayerTableRecord
  2
0
 70
     0
 62
     7
  6
Continuous
370
    -3
390
F
  0
LAYER
  5
64
330
2
100
AcDbSymbolTableRecord
100
AcDbLayerTableRecord
  2
Visible Edges
 70
     0
 62
     7
  6
Continuous
370
    50
390
F
  0
LAYER
  5
65
330
2
100
AcDbSymbolTableRecord
100
AcDbLayerTableRecord
  2
Hidden Edges
 70
     0
 62
     7
  6
ACAD_ISO02W100
370
    35
390
F
  0
LAYER
  5
67
330
2
100
AcDbSymbolTableRecord
100
AcDbLayerTableRecord
  2
Tangent Edges
 70
     0
 62
     7
  6
Continuous
370
    50
390
F
  0
LAYER
  5
68
330
2
100
AcDbSymbolTableRecord
100
AcDbLayerTableRecord
  2
Section View Lines
 70
     0
 62
     7
  6
ACAD_ISO09W100
370
    70
390
F
  0
LAYER
  5
6A
330
2
100
AcDbSymbolTableRecord
100
AcDbLayerTableRecord
  2
Detail Circle Lines
 70
     0
 62
     7
  6
ACAD_ISO09W100
370
    50
390
F
  0
LAYER
  5
6C
330
2
100
AcDbSymbolTableRecord
100
AcDbLayerTableRecord
  2
Dimensions
 70
     0
 62
     7
  6
Continuous
370
    25
390
F
  0
LAYER
  5
6D
330
2
100
AcDbSymbolTableRecord
100
AcDbLayerTableRecord
  2
Center Mark
 70
     0
 62
     7
  6
Continuous
370
    25
390
F
  0
LAYER
  5
6E
330
2
100
AcDbSymbolTableRecord
100
AcDbLayerTableRecord
  2
Symbols
 70
     0
 62
     7
  6
Continuous
370
    25
390
F
  0
LAYER
  5
6F
330
2
100
AcDbSymbolTableRecord
100
AcDbLayerTableRecord
  2
Leader Lines
 70
     0
 62
     7
  6
Continuous
370
    25
390
F
  0
LAYER
  5
70
330
2
100
AcDbSymbolTableRecord
100
AcDbLayerTableRecord
  2
Sketch Lines
 70
     0
 62
     7
  6
Continuous
370
    25
390
F
  0
LAYER
  5
71
330
2
100
AcDbSymbolTableRecord
100
AcDbLayerTableRecord
  2
Phantom Lines
 70
     0
 62
     7
  6
ACAD_ISO09W100
370
    70
390
F
  0
LAYER
  5
73
330
2
100
AcDbSymbolTableRecord
100
AcDbLayerTableRecord
  2
Symmetry Lines
 70
     0
 62
     7
  6
ACAD_ISO08W100
370
    25
390
F
  0
LAYER
  5
75
330
2
100
AcDbSymbolTableRecord
100
AcDbLayerTableRecord
  2
Break Lines
 70
     0
 62
     7
  6
Continuous
370
    50
390
F
  0
LAYER
  5
76
330
2
100
AcDbSymbolTableRecord
100
AcDbLayerTableRecord
  2
Chain Lines
 70
     0
 62
     7
  6
ACAD_ISO08W100
370
    50
390
F
  0
LAYER
  5
78
330
2
100
AcDbSymbolTableRecord
100
AcDbLayerTableRecord
  2
Stitch 1 Lines
 70
     0
 62
     7
  6
ACAD_ISO03W100
370
    25
390
F
  0
LAYER
  5
7A
330
2
100
AcDbSymbolTableRecord
100
AcDbLayerTableRecord
  2
Stitch 2 Lines
 70
     0
 62
     7
  6
ACAD_ISO07W100
370
    25
390
F
  0
LAYER
  5
7C
330
2
100
AcDbSymbolTableRecord
100
AcDbLayerTableRecord
  2
Center Line
 70
     0
 62
     7
  6
Continuous
370
    25
390
F
  0
LAYER
  5
7D
330
2
100
AcDbSymbolTableRecord
100
AcDbLayerTableRecord
  2
Sketch Only Lines
 70
     0
 62
     7
  6
Continuous
370
    50
390
F
  0
LAYER
  5
7E
330
2
100
AcDbSymbolTableRecord
100
AcDbLayerTableRecord
  2
07 Lines (Long)
 70
     0
 62
     7
  6
ACAD_ISO06W100
370
    25
390
F
  0
LAYER
  5
80
330
2
100
AcDbSymbolTableRecord
100
AcDbLayerTableRecord
  2
Hatch
 70
     0
 62
     7
  6
Continuous
370
    25
390
F
  0
LAYER
  5
81
330
2
100
AcDbSymbolTableRecord
100
AcDbLayerTableRecord
  2
Text
 70
     0
 62
     7
  6
Continuous
370
    25
390
F
  0
LAYER
  5
29D
330
2
100
AcDbSymbolTableRecord
100
AcDbLayerTableRecord
  2
Defpoints
 70
     0
 62
     7
  6
Continuous
290
     0
370
    -3
390
F
  0
ENDTAB
  0
TABLE
  2
STYLE
  5
3
330
0
100
AcDbSymbolTable
 70
    17
  0
STYLE
  5
11
330
3
100
AcDbSymbolTableRecord
100
AcDbTextStyleTableRecord
  2
Standard
 70
     0
 40
0.0
 41
1.0
 50
0.0
 71
     0
 42
0.2
  3
ARIAL.TTF
  4

1001
ACAD
1000
Arial
1071
      256
  0
STYLE
  5
4F
330
3
100
AcDbSymbolTableRecord
100
AcDbTextStyleTableRecord
  2

 70
     1
 40
0.0
 41
1.0
 50
0.0
 71
     0
 42
0.2
  3
ltypeshp.shx
  4

  0
STYLE
  5
58
330
3
100
AcDbSymbolTableRecord
100
AcDbTextStyleTableRecord
  2
TextStyle1
 70
     0
 40
0.0
 41
0.9399999976158142
 50
0.0
 71
     0
 42
0.2
  3
ARIAL.TTF
  4

1001
ACAD
1000
Arial
1071
      256
  0
STYLE
  5
59
330
3
100
AcDbSymbolTableRecord
100
AcDbTextStyleTableRecord
  2
TextStyle2
 70
     0
 40
0.0
 41
0.9399999976158142
 50
0.0
 71
     0
 42
0.2
  3
Aigdt___.ttf
  4

1001
ACAD
1000
AIGDT
1071
      514
  0
STYLE
  5
5A
330
3
100
AcDbSymbolTableRecord
100
AcDbTextStyleTableRecord
  2
TextStyle3
 70
     0
 40
0.0
 41
0.9399999976158142
 50
0.0
 71
     0
 42
0.2
  3
TIMES.TTF
  4

1001
ACAD
1000
Times New Roman
1071
      256
  0
STYLE
  5
5B
330
3
100
AcDbSymbolTableRecord
100
AcDbTextStyleTableRecord
  2
TextStyle4
 70
     0
 40
0.0
 41
0.9399999976158142
 50
0.0
 71
     0
 42
0.2
  3
TIMES.TTF
  4

1001
ACAD
1000
Times New Roman
1071
      256
  0
STYLE
  5
5C
330
3
100
AcDbSymbolTableRecord
100
AcDbTextStyleTableRecord
  2
TextStyle5
 70
     0
 40
0.0
 41
0.9399999976158142
 50
0.0
 71
     0
 42
0.2
  3
ARIAL.TTF
  4

1001
ACAD
1000
Arial
1071
      256
  0
STYLE
  5
5D
330
3
100
AcDbSymbolTableRecord
100
AcDbTextStyleTableRecord
  2
TextStyle6
 70
     0
 40
0.0
 41
0.9399999976158142
 50
0.0
 71
     0
 42
0.2
  3
ARIAL.TTF
  4

1001
ACAD
1000
Arial
1071
      256
  0
STYLE
  5
5E
330
3
100
AcDbSymbolTableRecord
100
AcDbTextStyleTableRecord
  2
TextStyle7
 70
     0
 40
0.0
 41
0.9399999976158142
 50
0.0
 71
     0
 42
0.2
  3
ARIAL.TTF
  4

1001
ACAD
1000
Arial
1071
      256
  0
STYLE
  5
5F
330
3
100
AcDbSymbolTableRecord
100
AcDbTextStyleTableRecord
  2
TextStyle8
 70
     0
 40
0.0
 41
0.9399999976158142
 50
0.0
 71
     0
 42
0.2
  3
ARIAL.TTF
  4

1001
ACAD
1000
Arial
1071
      256
  0
STYLE
  5
60
330
3
100
AcDbSymbolTableRecord
100
AcDbTextStyleTableRecord
  2
TextStyle9
 70
     0
 40
0.0
 41
0.9399999976158142
 50
0.0
 71
     0
 42
0.2
  3
ARIAL.TTF
  4

1001
ACAD
1000
Arial
1071
      256
  0
STYLE
  5
61
330
3
100
AcDbSymbolTableRecord
100
AcDbTextStyleTableRecord
  2
TextStyle10
 70
     0
 40
0.0
 41
0.9399999976158142
 50
0.0
 71
     0
 42
0.2
  3
Aigdt___.ttf
  4

1001
ACAD
1000
AIGDT
1071
      514
  0
STYLE
  5
62
330
3
100
AcDbSymbolTableRecord
100
AcDbTextStyleTableRecord
  2
TextStyle11
 70
     0
 40
0.0
 41
0.9399999976158142
 50
0.0
 71
     0
 42
0.2
  3
ARIAL.TTF
  4

1001
ACAD
1000
Arial
1071
      256
  0
STYLE
  5
63
330
3
100
AcDbSymbolTableRecord
100
AcDbTextStyleTableRecord
  2
TextStyle12
 70
     0
 40
0.0
 41
0.9399999976158142
 50
0.0
 71
     0
 42
0.2
  3
Aigdt___.ttf
  4

1001
ACAD
1000
AIGDT
1071
      514
  0
STYLE
  5
82
330
3
100
AcDbSymbolTableRecord
100
AcDbTextStyleTableRecord
  2
Current-ANSI
 70
     0
 40
0.0
 41
0.9399999976158142
 50
0.0
 71
     0
 42
0.2
  3
ARIAL.TTF
  4

1001
ACAD
1000
Arial
1071
      256
  0
STYLE
  5
83
330
3
100
AcDbSymbolTableRecord
100
AcDbTextStyleTableRecord
  2
DEFAULT-ANSI
 70
     0
 40
0.0
 41
0.9399999976158142
 50
0.0
 71
     0
 42
0.2
  3
ARIAL.TTF
  4

1001
ACAD
1000
Arial
1071
      256
  0
STYLE
  5
CB
330
3
100
AcDbSymbolTableRecord
100
AcDbTextStyleTableRecord
  2
TextStyle13
 70
     0
 40
0.0
 41
0.9399999976158142
 50
0.0
 71
     0
 42
0.2
  3
ARIAL.TTF
  4

1001
ACAD
1000
Arial
1071
      256
  0
ENDTAB
  0
TABLE
  2
VIEW
  5
6
330
0
100
AcDbSymbolTable
 70
     0
  0
ENDTAB
  0
TABLE
  2
UCS
  5
7
330
0
100
AcDbSymbolTable
 70
     0
  0
ENDTAB
  0
TABLE
  2
APPID
  5
9
330
0
100
AcDbSymbolTable
 70
     1
  0
APPID
  5
12
330
9
100
AcDbSymbolTableRecord
100
AcDbRegAppTableRecord
  2
ACAD
 70
     0
  0
ENDTAB
  0
TABLE
  2
DIMSTYLE
  5
A
330
0
100
AcDbSymbolTable
 70
    12
100
AcDbDimStyleTable
 71
     2
340
8D
340
57
  0
DIMSTYLE
105
27
330
A
100
AcDbSymbolTableRecord
100
AcDbDimStyleTableRecord
  2
Standard
 70
     0
340
11
  0
DIMSTYLE
105
57
330
A
100
AcDbSymbolTableRecord
100
AcDbDimStyleTableRecord
  2
2dTranslatorDimStyle
 70
     0
 41
0.0708661417322835
140
0.0708661417322835
340
11
  0
DIMSTYLE
105
84
330
A
100
AcDbSymbolTableRecord
100
AcDbDimStyleTableRecord
  2
1 32 - FRACTION
 70
     0
 41
0.0984251946210861
 43
0.1889763779527559
 44
0.125
 45
0.00000001
 46
0.3937007874015748
 73
     0
 74
     0
140
0.1200000047683716
147
0.031496062992126
176
   172
177
   172
178
    47
271
     5
272
     2
277
     5
340
5F
344
85
371
    25
372
    25
  0
DIMSTYLE
105
8C
330
A
100
AcDbSymbolTableRecord
100
AcDbDimStyleTableRecord
  2
1 64 - FRACTION
 70
     0
 41
0.0984251946210861
 43
0.1889763779527559
 44
0.125
 45
0.00000001
 46
0.3937007874015748
 73
     0
 74
     0
140
0.1200000047683716
147
0.031496062992126
176
   172
177
   172
178
    47
271
     6
272
     2
277
     5
340
5F
344
85
371
    25
372
    25
  0
DIMSTYLE
105
8D
102
{ACAD_REACTORS
330
29C
330
341
330
3E5
330
489
330
52D
330
5D1
330
675
330
719
330
7BD
330
861
330
905
330
9A9
330
A4D
330
AF1
330
B95
330
C3F
330
CE3
330
D87
330
E2B
330
ECF
330
F73
330
1017
330
10BB
330
115F
330
1203
330
12A7
330
134B
330
13EF
330
1493
330
1537
330
15DB
330
167F
330
1723
330
17C7
330
186B
330
190F
330
19B3
330
1A57
330
1AFB
330
1B9F
330
1C43
330
1CE7
330
1D8B
330
1E2F
330
1ED3
330
1F77
330
201B
330
208A
330
20F9
330
2168
330
21D7
330
2246
330
22B5
330
2324
330
2393
330
2402
330
2471
330
251B
330
25BF
330
2663
330
2707
330
27AB
102
}
330
A
100
AcDbSymbolTableRecord
100
AcDbDimStyleTableRecord
  2
ANSI - ALIGNED
 70
     0
 41
0.0984251946210861
 43
0.1889763779527559
 44
0.125
 45
0.00000001
 46
0.3937007874015748
 73
     0
140
0.1200000047683716
147
0.031496062992126
176
    47
177
    47
178
    47
271
     3
272
     2
340
5F
344
85
371
    25
372
    25
  0
DIMSTYLE
105
8E
330
A
100
AcDbSymbolTableRecord
100
AcDbDimStyleTableRecord
  2
ANSI FRACTION - ALIGNED
 70
     0
 41
0.0984251946210861
 43
0.1889763779527559
 44
0.125
 45
0.00000001
 46
0.3937007874015748
 73
     0
140
0.1200000047683716
147
0.031496062992126
176
    47
177
    47
178
    47
272
     2
277
     5
340
5F
344
85
371
    25
372
    25
  0
DIMSTYLE
105
8F
330
A
100
AcDbSymbolTableRecord
100
AcDbDimStyleTableRecord
  2
DEFAULT-ANSI
 70
     0
 41
0.0984251946210861
 43
0.1889763779527559
 44
0.125
 45
0.00000001
 46
0.3937007874015748
140
0.1200000047683716
147
0.031496062992126
176
    47
177
    47
178
    47
271
     2
272
     2
340
5F
344
85
371
    25
372
    25
  0
DIMSTYLE
105
90
330
A
100
AcDbSymbolTableRecord
100
AcDbDimStyleTableRecord
  2
DEFAULT-ANSI FRACTION
 70
     0
 41
0.0984251946210861
 43
0.1889763779527559
 44
0.125
 45
0.00000001
 46
0.3937007874015748
140
0.1200000047683716
147
0.031496062992126
176
    47
177
    47
178
    47
272
     2
277
     5
340
5F
344
85
371
    25
372
    25
  0
DIMSTYLE
105
91
330
A
100
AcDbSymbolTableRecord
100
AcDbDimStyleTableRecord
  2
MM-ANSI
 70
     0
 41
0.0984251946210861
 43
0.1889763779527559
 44
0.125
 45
0.00000001
 46
0.3937007874015748
 73
     0
140
0.1200000047683716
147
0.063
176
   250
177
   250
178
    47
179
     1
271
     2
272
     2
340
5F
344
85
371
    25
372
    25
  0
DIMSTYLE
105
92
330
A
100
AcDbSymbolTableRecord
100
AcDbDimStyleTableRecord
  2
X . XX mm [in]
 70
     0
 41
0.0984251946210861
 42
0.094
 43
0.2
 44
0.125
 45
0.00000001
 46
0.3937007874015748
 73
     0
 74
     0
140
0.1200000047683716
147
0.063
176
   250
177
   250
178
    18
179
     1
271
     2
272
     2
340
5F
344
85
371
    25
372
    25
  0
DIMSTYLE
105
93
330
A
100
AcDbSymbolTableRecord
100
AcDbDimStyleTableRecord
  2
X . XXX
 70
     0
 41
0.0984251946210861
 42
0.094
 43
0.2
 44
0.125
 45
0.00000001
 46
0.3937007874015748
 73
     0
 74
     0
140
0.1200000047683716
147
0.063
176
   250
177
   250
178
    18
179
     1
271
     3
272
     2
340
5F
344
85
371
    25
372
    25
  0
DIMSTYLE
105
94
330
A
100
AcDbSymbolTableRecord
100
AcDbDimStyleTableRecord
  2
X . XXX in [mm]
 70
     0
 41
0.0984251946210861
 42
0.094
 43
0.2
 44
0.125
 45
0.00000001
 46
0.3937007874015748
 73
     0
 74
     0
140
0.1200000047683716
147
0.063
176
   250
177
   250
178
    18
179
     1
271
     3
272
     2
340
5F
344
85
371
    25
372
    25
  0
ENDTAB
  0
TABLE
  2
BLOCK_RECORD
  5
1
330
0
100
AcDbSymbolTable
 70
    66
  0
BLOCK_RECORD
  5
1F
330
1
100
AcDbSymbolTableRecord
100
AcDbBlockTableRecord
  2
*Model_Space
340
22
  0
BLOCK_RECORD
  5
1B
330
1
100
AcDbSymbolTableRecord
100
AcDbBlockTableRecord
  2
*Paper_Space
340
1E
  0
BLOCK_RECORD
  5
23
330
1
100
AcDbSymbolTableRecord
100
AcDbBlockTableRecord
  2
*Paper_Space0
340
26
  0
BLOCK_RECORD
  5
85
330
1
100
AcDbSymbolTableRecord
100
AcDbBlockTableRecord
  2
_Closed
340
0
  0
BLOCK_RECORD
  5
95
330
1
100
AcDbSymbolTableRecord
100
AcDbBlockTableRecord
  2
2dTransBorder1
340
0
102
{BLKREFS
331
ED
102
}
  0
BLOCK_RECORD
  5
EE
330
1
100
AcDbSymbolTableRecord
100
AcDbBlockTableRecord
  2
2dTransTitleBlock1
340
0
102
{BLKREFS
331
121
102
}
  0
BLOCK_RECORD
  5
29E
330
1
100
AcDbSymbolTableRecord
100
AcDbBlockTableRecord
  2
*D4
340
0
  0
BLOCK_RECORD
  5
342
330
1
100
AcDbSymbolTableRecord
100
AcDbBlockTableRecord
  2
*D5
340
0
  0
BLOCK_RECORD
  5
3E6
330
1
100
AcDbSymbolTableRecord
100
AcDbBlockTableRecord
  2
*D6
340
0
  0
BLOCK_RECORD
  5
48A
330
1
100
AcDbSymbolTableRecord
100
AcDbBlockTableRecord
  2
*D7
340
0
  0
BLOCK_RECORD
  5
52E
330
1
100
AcDbSymbolTableRecord
100
AcDbBlockTableRecord
  2
*D8
340
0
  0
BLOCK_RECORD
  5
5D2
330
1
100
AcDbSymbolTableRecord
100
AcDbBlockTableRecord
  2
*D9
340
0
  0
BLOCK_RECORD
  5
676
330
1
100
AcDbSymbolTableRecord
100
AcDbBlockTableRecord
  2
*D10
340
0
  0
BLOCK_RECORD
  5
71A
330
1
100
AcDbSymbolTableRecord
100
AcDbBlockTableRecord
  2
*D11
340
0
  0
BLOCK_RECORD
  5
7BE
330
1
100
AcDbSymbolTableRecord
100
AcDbBlockTableRecord
  2
*D12
340
0
  0
BLOCK_RECORD
  5
862
330
1
100
AcDbSymbolTableRecord
100
AcDbBlockTableRecord
  2
*D13
340
0
  0
BLOCK_RECORD
  5
906
330
1
100
AcDbSymbolTableRecord
100
AcDbBlockTableRecord
  2
*D14
340
0
  0
BLOCK_RECORD
  5
9AA
330
1
100
AcDbSymbolTableRecord
100
AcDbBlockTableRecord
  2
*D15
340
0
  0
BLOCK_RECORD
  5
A4E
330
1
100
AcDbSymbolTableRecord
100
AcDbBlockTableRecord
  2
*D16
340
0
  0
BLOCK_RECORD
  5
AF2
330
1
100
AcDbSymbolTableRecord
100
AcDbBlockTableRecord
  2
*D17
340
0
  0
BLOCK_RECORD
  5
B96
330
1
100
AcDbSymbolTableRecord
100
AcDbBlockTableRecord
  2
*D18
340
0
  0
BLOCK_RECORD
  5
C40
330
1
100
AcDbSymbolTableRecord
100
AcDbBlockTableRecord
  2
*D19
340
0
  0
BLOCK_RECORD
  5
CE4
330
1
100
AcDbSymbolTableRecord
100
AcDbBlockTableRecord
  2
*D20
340
0
  0
BLOCK_RECORD
  5
D88
330
1
100
AcDbSymbolTableRecord
100
AcDbBlockTableRecord
  2
*D21
340
0
  0
BLOCK_RECORD
  5
E2C
330
1
100
AcDbSymbolTableRecord
100
AcDbBlockTableRecord
  2
*D22
340
0
  0
BLOCK_RECORD
  5
ED0
330
1
100
AcDbSymbolTableRecord
100
AcDbBlockTableRecord
  2
*D23
340
0
  0
BLOCK_RECORD
  5
F74
330
1
100
AcDbSymbolTableRecord
100
AcDbBlockTableRecord
  2
*D24
340
0
  0
BLOCK_RECORD
  5
1018
330
1
100
AcDbSymbolTableRecord
100
AcDbBlockTableRecord
  2
*D25
340
0
  0
BLOCK_RECORD
  5
10BC
330
1
100
AcDbSymbolTableRecord
100
AcDbBlockTableRecord
  2
*D26
340
0
  0
BLOCK_RECORD
  5
1160
330
1
100
AcDbSymbolTableRecord
100
AcDbBlockTableRecord
  2
*D27
340
0
  0
BLOCK_RECORD
  5
1204
330
1
100
AcDbSymbolTableRecord
100
AcDbBlockTableRecord
  2
*D28
340
0
  0
BLOCK_RECORD
  5
12A8
330
1
100
AcDbSymbolTableRecord
100
AcDbBlockTableRecord
  2
*D29
340
0
  0
BLOCK_RECORD
  5
134C
330
1
100
AcDbSymbolTableRecord
100
AcDbBlockTableRecord
  2
*D30
340
0
  0
BLOCK_RECORD
  5
13F0
330
1
100
AcDbSymbolTableRecord
100
AcDbBlockTableRecord
  2
*D31
340
0
  0
BLOCK_RECORD
  5
1494
330
1
100
AcDbSymbolTableRecord
100
AcDbBlockTableRecord
  2
*D32
340
0
  0
BLOCK_RECORD
  5
1538
330
1
100
AcDbSymbolTableRecord
100
AcDbBlockTableRecord
  2
*D33
340
0
  0
BLOCK_RECORD
  5
15DC
330
1
100
AcDbSymbolTableRecord
100
AcDbBlockTableRecord
  2
*D34
340
0
  0
BLOCK_RECORD
  5
1680
330
1
100
AcDbSymbolTableRecord
100
AcDbBlockTableRecord
  2
*D35
340
0
  0
BLOCK_RECORD
  5
1724
330
1
100
AcDbSymbolTableRecord
100
AcDbBlockTableRecord
  2
*D36
340
0
  0
BLOCK_RECORD
  5
17C8
330
1
100
AcDbSymbolTableRecord
100
AcDbBlockTableRecord
  2
*D37
340
0
  0
BLOCK_RECORD
  5
186C
330
1
100
AcDbSymbolTableRecord
100
AcDbBlockTableRecord
  2
*D38
340
0
  0
BLOCK_RECORD
  5
1910
330
1
100
AcDbSymbolTableRecord
100
AcDbBlockTableRecord
  2
*D39
340
0
  0
BLOCK_RECORD
  5
19B4
330
1
100
AcDbSymbolTableRecord
100
AcDbBlockTableRecord
  2
*D40
340
0
  0
BLOCK_RECORD
  5
1A58
330
1
100
AcDbSymbolTableRecord
100
AcDbBlockTableRecord
  2
*D41
340
0
  0
BLOCK_RECORD
  5
1AFC
330
1
100
AcDbSymbolTableRecord
100
AcDbBlockTableRecord
  2
*D42
340
0
  0
BLOCK_RECORD
  5
1BA0
330
1
100
AcDbSymbolTableRecord
100
AcDbBlockTableRecord
  2
*D43
340
0
  0
BLOCK_RECORD
  5
1C44
330
1
100
AcDbSymbolTableRecord
100
AcDbBlockTableRecord
  2
*D44
340
0
  0
BLOCK_RECORD
  5
1CE8
330
1
100
AcDbSymbolTableRecord
100
AcDbBlockTableRecord
  2
*D45
340
0
  0
BLOCK_RECORD
  5
1D8C
330
1
100
AcDbSymbolTableRecord
100
AcDbBlockTableRecord
  2
*D46
340
0
  0
BLOCK_RECORD
  5
1E30
330
1
100
AcDbSymbolTableRecord
100
AcDbBlockTableRecord
  2
*D47
340
0
  0
BLOCK_RECORD
  5
1ED4
330
1
100
AcDbSymbolTableRecord
100
AcDbBlockTableRecord
  2
*D48
340
0
  0
BLOCK_RECORD
  5
1F78
330
1
100
AcDbSymbolTableRecord
100
AcDbBlockTableRecord
  2
*D49
340
0
  0
BLOCK_RECORD
  5
201C
330
1
100
AcDbSymbolTableRecord
100
AcDbBlockTableRecord
  2
*D50
340
0
  0
BLOCK_RECORD
  5
208B
330
1
100
AcDbSymbolTableRecord
100
AcDbBlockTableRecord
  2
*D51
340
0
  0
BLOCK_RECORD
  5
20FA
330
1
100
AcDbSymbolTableRecord
100
AcDbBlockTableRecord
  2
*D52
340
0
  0
BLOCK_RECORD
  5
2169
330
1
100
AcDbSymbolTableRecord
100
AcDbBlockTableRecord
  2
*D53
340
0
  0
BLOCK_RECORD
  5
21D8
330
1
100
AcDbSymbolTableRecord
100
AcDbBlockTableRecord
  2
*D54
340
0
  0
BLOCK_RECORD
  5
2247
330
1
100
AcDbSymbolTableRecord
100
AcDbBlockTableRecord
  2
*D55
340
0
  0
BLOCK_RECORD
  5
22B6
330
1
100
AcDbSymbolTableRecord
100
AcDbBlockTableRecord
  2
*D56
340
0
  0
BLOCK_RECORD
  5
2325
330
1
100
AcDbSymbolTableRecord
100
AcDbBlockTableRecord
  2
*D57
340
0
  0
BLOCK_RECORD
  5
2394
330
1
100
AcDbSymbolTableRecord
100
AcDbBlockTableRecord
  2
*D58
340
0
  0
BLOCK_RECORD
  5
2403
330
1
100
AcDbSymbolTableRecord
100
AcDbBlockTableRecord
  2
*D59
340
0
  0
BLOCK_RECORD
  5
2472
330
1
100
AcDbSymbolTableRecord
100
AcDbBlockTableRecord
  2
*D60
340
0
  0
BLOCK_RECORD
  5
251C
330
1
100
AcDbSymbolTableRecord
100
AcDbBlockTableRecord
  2
*D61
340
0
  0
BLOCK_RECORD
  5
25C0
330
1
100
AcDbSymbolTableRecord
100
AcDbBlockTableRecord
  2
*D62
340
0
  0
BLOCK_RECORD
  5
2664
330
1
100
AcDbSymbolTableRecord
100
AcDbBlockTableRecord
  2
*D63
340
0
  0
BLOCK_RECORD
  5
2708
330
1
100
AcDbSymbolTableRecord
100
AcDbBlockTableRecord
  2
*D64
340
0
  0
BLOCK_RECORD
  5
27AC
330
1
100
AcDbSymbolTableRecord
100
AcDbBlockTableRecord
  2
*D65
340
0
  0
ENDTAB
  0
ENDSEC
  0
SECTION
  2
BLOCKS
  0
BLOCK
  5
20
330
1F
100
AcDbEntity
  8
0
100
AcDbBlockBegin
  2
*Model_Space
 70
     0
 10
0.0
 20
0.0
 30
0.0
  3
*Model_Space
  1

  0
ENDBLK
  5
21
330
1F
100
AcDbEntity
  8
0
100
AcDbBlockEnd
  0
BLOCK
  5
1C
330
1B
100
AcDbEntity
 67
     1
  8
0
100
AcDbBlockBegin
  2
*Paper_Space
 70
     0
 10
0.0
 20
0.0
 30
0.0
  3
*Paper_Space
  1

  0
ENDBLK
  5
1D
330
1B
100
AcDbEntity
 67
     1
  8
0
100
AcDbBlockEnd
  0
BLOCK
  5
24
330
23
100
AcDbEntity
  8
0
100
AcDbBlockBegin
  2
*Paper_Space0
 70
     0
 10
0.0
 20
0.0
 30
0.0
  3
*Paper_Space0
  1

  0
ENDBLK
  5
25
330
23
100
AcDbEntity
  8
0
100
AcDbBlockEnd
  0
BLOCK
  5
8A
330
85
100
AcDbEntity
  8
0
100
AcDbBlockBegin
  2
_Closed
 70
     0
 10
0.0
 20
0.0
 30
0.0
  3
_Closed
  1

  0
LINE
  5
86
330
85
100
AcDbEntity
  8
0
  6
ByBlock
 62
     0
370
    -2
100
AcDbLine
 10
-1.0
 20
0.1666666666666666
 30
0.0
 11
0.0
 21
0.0
 31
0.0
  0
LINE
  5
87
330
85
100
AcDbEntity
  8
0
  6
ByBlock
 62
     0
370
    -2
100
AcDbLine
 10
0.0
 20
0.0
 30
0.0
 11
-1.0
 21
-0.1666666666666666
 31
0.0
  0
LINE
  5
88
330
85
100
AcDbEntity
  8
0
  6
ByBlock
 62
     0
370
    -2
100
AcDbLine
 10
-1.0
 20
0.1666666666666666
 30
0.0
 11
-1.0
 21
-0.1666666666666666
 31
0.0
  0
LINE
  5
89
330
85
100
AcDbEntity
  8
0
  6
ByBlock
 62
     0
370
    -2
100
AcDbLine
 10
0.0
 20
0.0
 30
0.0
 11
-1.0
 21
0.0
 31
0.0
  0
ENDBLK
  5
8B
330
85
100
AcDbEntity
  8
0
100
AcDbBlockEnd
  0
BLOCK
  5
96
330
95
100
AcDbEntity
  8
0
100
AcDbBlockBegin
  2
2dTransBorder1
 70
     0
 10
0.0
 20
0.0
 30
0.0
  3
2dTransBorder1
  1

  0
POLYLINE
  5
98
330
95
100
AcDbEntity
  8
Sketch Lines
  6
Continuous
 62
     7
370
    50
100
AcDb2dPolyline
 66
     1
 10
0.0
 20
0.0
 30
0.0
  0
VERTEX
  5
99
330
98
100
AcDbEntity
  8
Sketch Lines
  6
Continuous
 62
     7
370
    50
100
AcDbVertex
100
AcDb2dVertex
 10
1.90499997138977
 20
1.269999980926513
 30
0.0
  0
VERTEX
  5
9A
330
98
100
AcDbEntity
  8
Sketch Lines
  6
Continuous
 62
     7
370
    50
100
AcDbVertex
100
AcDb2dVertex
 10
1.90499997138977
 20
41.9099998474121
 30
0.0
  0
VERTEX
  5
9C
330
98
100
AcDbEntity
  8
Sketch Lines
  6
Continuous
 62
     7
370
    50
100
AcDbVertex
100
AcDb2dVertex
 10
53.9749984741211
 20
41.9099998474121
 30
0.0
  0
VERTEX
  5
9D
330
98
100
AcDbEntity
  8
Sketch Lines
  6
Continuous
 62
     7
370
    50
100
AcDbVertex
100
AcDb2dVertex
 10
53.9749984741211
 20
1.269999980926513
 30
0.0
  0
VERTEX
  5
9E
330
98
100
AcDbEntity
  8
Sketch Lines
  6
Continuous
 62
     7
370
    50
100
AcDbVertex
100
AcDb2dVertex
 10
1.90499997138977
 20
1.269999980926513
 30
0.0
  0
SEQEND
  5
9B
330
98
100
AcDbEntity
  8
Sketch Lines
  6
Continuous
 62
     7
370
    50
  0
POLYLINE
  5
9F
330
95
100
AcDbEntity
  8
Sketch Lines
  6
Continuous
 62
     7
370
    50
100
AcDb2dPolyline
 66
     1
 10
0.0
 20
0.0
 30
0.0
  0
VERTEX
  5
A0
330
9F
100
AcDbEntity
  8
Sketch Lines
  6
Continuous
 62
     7
370
    50
100
AcDbVertex
100
AcDb2dVertex
 10
27.94000053405762
 20
0.6349999904632569
 30
0.0
  0
VERTEX
  5
A1
330
9F
100
AcDbEntity
  8
Sketch Lines
  6
Continuous
 62
     7
370
    50
100
AcDbVertex
100
AcDb2dVertex
 10
27.94000053405762
 20
1.269999980926513
 30
0.0
  0
VERTEX
  5
A3
330
9F
100
AcDbEntity
  8
Sketch Lines
  6
Continuous
 62
     7
370
    50
100
AcDbVertex
100
AcDb2dVertex
 10
27.72002983093261
 20
0.8889999985694885
 30
0.0
  0
VERTEX
  5
A4
330
9F
100
AcDbEntity
  8
Sketch Lines
  6
Continuous
 62
     7
370
    50
100
AcDbVertex
100
AcDb2dVertex
 10
28.15997123718261
 20
0.8889999985694885
 30
0.0
  0
VERTEX
  5
A5
330
9F
100
AcDbEntity
  8
Sketch Lines
  6
Continuous
 62
     7
370
    50
100
AcDbVertex
100
AcDb2dVertex
 10
27.94000053405762
 20
1.269999980926513
 30
0.0
  0
SEQEND
  5
A2
330
9F
100
AcDbEntity
  8
Sketch Lines
  6
Continuous
 62
     7
370
    50
  0
POLYLINE
  5
A6
330
95
100
AcDbEntity
  8
Sketch Lines
  6
Continuous
 62
     7
370
    50
100
AcDb2dPolyline
 66
     1
 10
0.0
 20
0.0
 30
0.0
  0
VERTEX
  5
A7
330
A6
100
AcDbEntity
  8
Sketch Lines
  6
Continuous
 62
     7
370
    50
100
AcDbVertex
100
AcDb2dVertex
 10
27.94000053405762
 20
42.54499816894531
 30
0.0
  0
VERTEX
  5
A8
330
A6
100
AcDbEntity
  8
Sketch Lines
  6
Continuous
 62
     7
370
    50
100
AcDbVertex
100
AcDb2dVertex
 10
27.94000053405762
 20
41.9099998474121
 30
0.0
  0
VERTEX
  5
AA
330
A6
100
AcDbEntity
  8
Sketch Lines
  6
Continuous
 62
     7
370
    50
100
AcDbVertex
100
AcDb2dVertex
 10
27.72002983093261
 20
42.29100036621093
 30
0.0
  0
VERTEX
  5
AB
330
A6
100
AcDbEntity
  8
Sketch Lines
  6
Continuous
 62
     7
370
    50
100
AcDbVertex
100
AcDb2dVertex
 10
28.15997123718261
 20
42.29100036621093
 30
0.0
  0
VERTEX
  5
AC
330
A6
100
AcDbEntity
  8
Sketch Lines
  6
Continuous
 62
     7
370
    50
100
AcDbVertex
100
AcDb2dVertex
 10
27.94000053405762
 20
41.9099998474121
 30
0.0
  0
SEQEND
  5
A9
330
A6
100
AcDbEntity
  8
Sketch Lines
  6
Continuous
 62
     7
370
    50
  0
POLYLINE
  5
AD
330
95
100
AcDbEntity
  8
Sketch Lines
  6
Continuous
 62
     7
370
    50
100
AcDb2dPolyline
 66
     1
 10
0.0
 20
0.0
 30
0.0
  0
VERTEX
  5
AE
330
AD
100
AcDbEntity
  8
Sketch Lines
  6
Continuous
 62
     7
370
    50
100
AcDbVertex
100
AcDb2dVertex
 10
1.269999980926513
 20
21.59000015258789
 30
0.0
  0
VERTEX
  5
AF
330
AD
100
AcDbEntity
  8
Sketch Lines
  6
Continuous
 62
     7
370
    50
100
AcDbVertex
100
AcDb2dVertex
 10
1.90499997138977
 20
21.59000015258789
 30
0.0
  0
VERTEX
  5
B1
330
AD
100
AcDbEntity
  8
Sketch Lines
  6
Continuous
 62
     7
370
    50
100
AcDbVertex
100
AcDb2dVertex
 10
1.52400004863739
 20
21.80997085571289
 30
0.0
  0
VERTEX
  5
B2
330
AD
100
AcDbEntity
  8
Sketch Lines
  6
Continuous
 62
     7
370
    50
100
AcDbVertex
100
AcDb2dVertex
 10
1.52400004863739
 20
21.37002944946289
 30
0.0
  0
VERTEX
  5
B3
330
AD
100
AcDbEntity
  8
Sketch Lines
  6
Continuous
 62
     7
370
    50
100
AcDbVertex
100
AcDb2dVertex
 10
1.90499997138977
 20
21.59000015258789
 30
0.0
  0
SEQEND
  5
B0
330
AD
100
AcDbEntity
  8
Sketch Lines
  6
Continuous
 62
     7
370
    50
  0
POLYLINE
  5
B4
330
95
100
AcDbEntity
  8
Sketch Lines
  6
Continuous
 62
     7
370
    50
100
AcDb2dPolyline
 66
     1
 10
0.0
 20
0.0
 30
0.0
  0
VERTEX
  5
B5
330
B4
100
AcDbEntity
  8
Sketch Lines
  6
Continuous
 62
     7
370
    50
100
AcDbVertex
100
AcDb2dVertex
 10
54.61000061035156
 20
21.59000015258789
 30
0.0
  0
VERTEX
  5
B6
330
B4
100
AcDbEntity
  8
Sketch Lines
  6
Continuous
 62
     7
370
    50
100
AcDbVertex
100
AcDb2dVertex
 10
53.9749984741211
 20
21.59000015258789
 30
0.0
  0
VERTEX
  5
B8
330
B4
100
AcDbEntity
  8
Sketch Lines
  6
Continuous
 62
     7
370
    50
100
AcDbVertex
100
AcDb2dVertex
 10
54.35599899291992
 20
21.80997085571289
 30
0.0
  0
VERTEX
  5
B9
330
B4
100
AcDbEntity
  8
Sketch Lines
  6
Continuous
 62
     7
370
    50
100
AcDbVertex
100
AcDb2dVertex
 10
54.35599899291992
 20
21.37002944946289
 30
0.0
  0
VERTEX
  5
BA
330
B4
100
AcDbEntity
  8
Sketch Lines
  6
Continuous
 62
     7
370
    50
100
AcDbVertex
100
AcDb2dVertex
 10
53.9749984741211
 20
21.59000015258789
 30
0.0
  0
SEQEND
  5
B7
330
B4
100
AcDbEntity
  8
Sketch Lines
  6
Continuous
 62
     7
370
    50
  0
POLYLINE
  5
BB
330
95
100
AcDbEntity
  8
Sketch Lines
  6
Continuous
 62
     7
370
    50
100
AcDb2dPolyline
 66
     1
 10
0.0
 20
0.0
 30
0.0
  0
VERTEX
  5
BC
330
BB
100
AcDbEntity
  8
Sketch Lines
  6
Continuous
 62
     7
370
    50
100
AcDbVertex
100
AcDb2dVertex
 10
13.97000026702881
 20
1.269999980926513
 30
0.0
  0
VERTEX
  5
BD
330
BB
100
AcDbEntity
  8
Sketch Lines
  6
Continuous
 62
     7
370
    50
100
AcDbVertex
100
AcDb2dVertex
 10
13.97000026702881
 20
0.8633999824523925
 30
0.0
  0
SEQEND
  5
BE
330
BB
100
AcDbEntity
  8
Sketch Lines
  6
Continuous
 62
     7
370
    50
  0
POLYLINE
  5
BF
330
95
100
AcDbEntity
  8
Sketch Lines
  6
Continuous
 62
     7
370
    50
100
AcDb2dPolyline
 66
     1
 10
0.0
 20
0.0
 30
0.0
  0
VERTEX
  5
C0
330
BF
100
AcDbEntity
  8
Sketch Lines
  6
Continuous
 62
     7
370
    50
100
AcDbVertex
100
AcDb2dVertex
 10
13.97000026702881
 20
41.9099998474121
 30
0.0
  0
VERTEX
  5
C1
330
BF
100
AcDbEntity
  8
Sketch Lines
  6
Continuous
 62
     7
370
    50
100
AcDbVertex
100
AcDb2dVertex
 10
13.97000026702881
 20
42.31660079956054
 30
0.0
  0
SEQEND
  5
C2
330
BF
100
AcDbEntity
  8
Sketch Lines
  6
Continuous
 62
     7
370
    50
  0
POLYLINE
  5
C3
330
95
100
AcDbEntity
  8
Sketch Lines
  6
Continuous
 62
     7
370
    50
100
AcDb2dPolyline
 66
     1
 10
0.0
 20
0.0
 30
0.0
  0
VERTEX
  5
C4
330
C3
100
AcDbEntity
  8
Sketch Lines
  6
Continuous
 62
     7
370
    50
100
AcDbVertex
100
AcDb2dVertex
 10
41.9099998474121
 20
1.269999980926513
 30
0.0
  0
VERTEX
  5
C5
330
C3
100
AcDbEntity
  8
Sketch Lines
  6
Continuous
 62
     7
370
    50
100
AcDbVertex
100
AcDb2dVertex
 10
41.9099998474121
 20
0.8633999824523925
 30
0.0
  0
SEQEND
  5
C6
330
C3
100
AcDbEntity
  8
Sketch Lines
  6
Continuous
 62
     7
370
    50
  0
POLYLINE
  5
C7
330
95
100
AcDbEntity
  8
Sketch Lines
  6
Continuous
 62
     7
370
    50
100
AcDb2dPolyline
 66
     1
 10
0.0
 20
0.0
 30
0.0
  0
VERTEX
  5
C8
330
C7
100
AcDbEntity
  8
Sketch Lines
  6
Continuous
 62
     7
370
    50
100
AcDbVertex
100
AcDb2dVertex
 10
41.9099998474121
 20
41.9099998474121
 30
0.0
  0
VERTEX
  5
C9
330
C7
100
AcDbEntity
  8
Sketch Lines
  6
Continuous
 62
     7
370
    50
100
AcDbVertex
100
AcDb2dVertex
 10
41.9099998474121
 20
42.31660079956054
 30
0.0
  0
SEQEND
  5
CA
330
C7
100
AcDbEntity
  8
Sketch Lines
  6
Continuous
 62
     7
370
    50
  0
POLYLINE
  5
D5
330
95
100
AcDbEntity
  8
Sketch Lines
  6
Continuous
 62
     7
370
    50
100
AcDb2dPolyline
 66
     1
 10
0.0
 20
0.0
 30
0.0
  0
VERTEX
  5
D6
330
D5
100
AcDbEntity
  8
Sketch Lines
  6
Continuous
 62
     7
370
    50
100
AcDbVertex
100
AcDb2dVertex
 10
1.90499997138977
 20
10.79500007629394
 30
0.0
  0
VERTEX
  5
D7
330
D5
100
AcDbEntity
  8
Sketch Lines
  6
Continuous
 62
     7
370
    50
100
AcDbVertex
100
AcDb2dVertex
 10
1.498399972915649
 20
10.79500007629394
 30
0.0
  0
SEQEND
  5
D8
330
D5
100
AcDbEntity
  8
Sketch Lines
  6
Continuous
 62
     7
370
    50
  0
POLYLINE
  5
D9
330
95
100
AcDbEntity
  8
Sketch Lines
  6
Continuous
 62
     7
370
    50
100
AcDb2dPolyline
 66
     1
 10
0.0
 20
0.0
 30
0.0
  0
VERTEX
  5
DA
330
D9
100
AcDbEntity
  8
Sketch Lines
  6
Continuous
 62
     7
370
    50
100
AcDbVertex
100
AcDb2dVertex
 10
53.9749984741211
 20
10.79500007629394
 30
0.0
  0
VERTEX
  5
DB
330
D9
100
AcDbEntity
  8
Sketch Lines
  6
Continuous
 62
     7
370
    50
100
AcDbVertex
100
AcDb2dVertex
 10
54.38159942626953
 20
10.79500007629394
 30
0.0
  0
SEQEND
  5
DC
330
D9
100
AcDbEntity
  8
Sketch Lines
  6
Continuous
 62
     7
370
    50
  0
POLYLINE
  5
DD
330
95
100
AcDbEntity
  8
Sketch Lines
  6
Continuous
 62
     7
370
    50
100
AcDb2dPolyline
 66
     1
 10
0.0
 20
0.0
 30
0.0
  0
VERTEX
  5
DE
330
DD
100
AcDbEntity
  8
Sketch Lines
  6
Continuous
 62
     7
370
    50
100
AcDbVertex
100
AcDb2dVertex
 10
1.90499997138977
 20
32.3849983215332
 30
0.0
  0
VERTEX
  5
DF
330
DD
100
AcDbEntity
  8
Sketch Lines
  6
Continuous
 62
     7
370
    50
100
AcDbVertex
100
AcDb2dVertex
 10
1.498399972915649
 20
32.3849983215332
 30
0.0
  0
SEQEND
  5
E0
330
DD
100
AcDbEntity
  8
Sketch Lines
  6
Continuous
 62
     7
370
    50
  0
POLYLINE
  5
E1
330
95
100
AcDbEntity
  8
Sketch Lines
  6
Continuous
 62
     7
370
    50
100
AcDb2dPolyline
 66
     1
 10
0.0
 20
0.0
 30
0.0
  0
VERTEX
  5
E2
330
E1
100
AcDbEntity
  8
Sketch Lines
  6
Continuous
 62
     7
370
    50
100
AcDbVertex
100
AcDb2dVertex
 10
53.9749984741211
 20
32.3849983215332
 30
0.0
  0
VERTEX
  5
E3
330
E1
100
AcDbEntity
  8
Sketch Lines
  6
Continuous
 62
     7
370
    50
100
AcDbVertex
100
AcDb2dVertex
 10
54.38159942626953
 20
32.3849983215332
 30
0.0
  0
SEQEND
  5
E4
330
E1
100
AcDbEntity
  8
Sketch Lines
  6
Continuous
 62
     7
370
    50
  0
ENDBLK
  5
97
330
95
100
AcDbEntity
  8
0
100
AcDbBlockEnd
  0
BLOCK
  5
EF
330
EE
100
AcDbEntity
  8
0
100
AcDbBlockBegin
  2
2dTransTitleBlock1
 70
     0
 10
0.0
 20
0.0
 30
0.0
  3
2dTransTitleBlock1
  1

  0
LINE
  5
F1
330
EE
100
AcDbEntity
  8
Sketch Lines
  6
Continuous
 62
     7
370
    50
100
AcDbLine
 10
43.51031690161388
 20
5.715008924999997
 30
0.0
 11
38.099968125
 21
5.715008924999997
 31
0.0
  0
LINE
  5
F2
330
EE
100
AcDbEntity
  8
Sketch Lines
  6
Continuous
 62
     7
370
    50
100
AcDbLine
 10
43.51031690161388
 20
5.08000765
 30
0.0
 11
38.099968125
 21
5.08000765
 31
0.0
  0
LINE
  5
F3
330
EE
100
AcDbEntity
  8
Sketch Lines
  6
Continuous
 62
     7
370
    50
100
AcDbLine
 10
43.51031690161388
 20
4.445006374999998
 30
0.0
 11
38.099968125
 21
4.445006374999998
 31
0.0
  0
LINE
  5
F4
330
EE
100
AcDbEntity
  8
Sketch Lines
  6
Continuous
 62
     7
370
    50
100
AcDbLine
 10
43.51031690161388
 20
3.810005099999999
 30
0.0
 11
38.099968125
 21
3.810005099999999
 31
0.0
  0
LINE
  5
F5
330
EE
100
AcDbEntity
  8
Sketch Lines
  6
Continuous
 62
     7
370
    50
100
AcDbLine
 10
43.51031690161388
 20
3.175003824999999
 30
0.0
 11
38.099968125
 21
3.175003824999999
 31
0.0
  0
LINE
  5
F6
330
EE
100
AcDbEntity
  8
Sketch Lines
  6
Continuous
 62
     7
370
    50
100
AcDbLine
 10
43.51031690161388
 20
2.540002549999998
 30
0.0
 11
38.099968125
 21
2.540002549999998
 31
0.0
  0
LINE
  5
F7
330
EE
100
AcDbEntity
  8
Sketch Lines
  6
Continuous
 62
     7
370
    50
100
AcDbLine
 10
43.51031690161388
 20
1.905001274999998
 30
0.0
 11
38.099968125
 21
1.905001274999998
 31
0.0
  0
LINE
  5
F8
330
EE
100
AcDbEntity
  8
Sketch Lines
  6
Continuous
 62
     7
370
    50
100
AcDbLine
 10
43.51031690161388
 20
4.775207037999999
 30
0.0
 11
53.975
 21
4.775207037999999
 31
0.0
  0
LINE
  5
F9
330
EE
100
AcDbEntity
  8
Sketch Lines
  6
Continuous
 62
     7
370
    50
100
AcDbLine
 10
44.56245004398596
 20
1.905001274999998
 30
0.0
 11
44.56245004398596
 21
2.844803161999998
 31
0.0
  0
LINE
  5
FA
330
EE
100
AcDbEntity
  8
Sketch Lines
  6
Continuous
 62
     7
370
    50
100
AcDbLine
 10
46.989985975
 20
1.905001274999998
 30
0.0
 11
46.989985975
 21
2.844803161999998
 31
0.0
  0
LINE
  5
FB
330
EE
100
AcDbEntity
  8
Sketch Lines
  6
Continuous
 62
     7
370
    50
100
AcDbLine
 10
53.009798062
 20
1.905001274999998
 30
0.0
 11
53.009798062
 21
2.844803161999998
 31
0.0
  0
LINE
  5
FC
330
EE
100
AcDbEntity
  8
Sketch Lines
  6
Continuous
 62
     7
370
    50
100
AcDbLine
 10
43.51031690161388
 20
2.844803161999998
 30
0.0
 11
53.975
 21
2.844803161999998
 31
0.0
  0
LINE
  5
FD
330
EE
100
AcDbEntity
  8
Sketch Lines
  6
Continuous
 62
     7
370
    50
100
AcDbLine
 10
41.27497449999999
 20
1.269999999999999
 30
0.0
 11
41.27497449999999
 21
6.350010199999998
 31
0.0
  0
LINE
  5
FE
330
EE
100
AcDbEntity
  8
Sketch Lines
  6
Continuous
 62
     7
370
    50
100
AcDbLine
 10
49.529991075
 20
1.269999999999999
 30
0.0
 11
49.529991075
 21
1.905001274999998
 31
0.0
  0
LINE
  5
FF
330
EE
100
AcDbEntity
  8
Sketch Lines
  6
Continuous
 62
     7
370
    50
100
AcDbLine
 10
45.94600455636739
 20
1.269999999999999
 30
0.0
 11
45.94600455636739
 21
1.905001274999998
 31
0.0
  0
LINE
  5
100
330
EE
100
AcDbEntity
  8
Sketch Lines
  6
Continuous
 62
     7
370
    50
100
AcDbLine
 10
43.51031690161388
 20
1.905001274999998
 30
0.0
 11
53.975
 21
1.905001274999998
 31
0.0
  0
LINE
  5
101
330
EE
100
AcDbEntity
  8
Sketch Lines
  6
Continuous
 62
     7
370
    50
100
AcDbLine
 10
43.51031690161388
 20
1.269999999999999
 30
0.0
 11
43.51031690161388
 21
6.350010199999998
 31
0.0
  0
LINE
  5
102
330
EE
100
AcDbEntity
  8
Sketch Lines
  6
Continuous
 62
     7
370
    50
100
AcDbLine
 10
38.099968125
 20
6.350010199999998
 30
0.0
 11
38.099968125
 21
1.269999999999999
 31
0.0
  0
LINE
  5
103
330
EE
100
AcDbEntity
  8
Sketch Lines
  6
Continuous
 62
     7
370
    50
100
AcDbLine
 10
53.975
 20
6.350010199999998
 30
0.0
 11
38.099968125
 21
6.350010199999998
 31
0.0
  0
LINE
  5
104
330
EE
100
AcDbEntity
  8
Sketch Lines
  6
Continuous
 62
     7
370
    50
100
AcDbLine
 10
53.975
 20
1.269999999999999
 30
0.0
 11
53.975
 21
6.350010199999998
 31
0.0
  0
LINE
  5
105
330
EE
100
AcDbEntity
  8
Sketch Lines
  6
Continuous
 62
     7
370
    50
100
AcDbLine
 10
38.099968125
 20
1.269999999999999
 30
0.0
 11
53.975
 21
1.269999999999999
 31
0.0
  0
ENDBLK
  5
F0
330
EE
100
AcDbEntity
  8
0
100
AcDbBlockEnd
  0
BLOCK
  5
2A9
330
29E
100
AcDbEntity
  8
0
100
AcDbBlockBegin
  2
*D4
 70
     1
 10
0.0
 20
0.0
 30
0.0
  3
*D4
  1

  0
LINE
  5
337
330
29E
100
AcDbEntity
  8
Dimensions
  6
Continuous
 62
    47
370
    25
100
AcDbLine
 10
6.34346969931564
 20
9.366337479317778
 30
0.0
 11
6.34346969931564
 21
8.914967588123838
 31
0.0
  0
LINE
  5
338
330
29E
100
AcDbEntity
  8
Dimensions
  6
Continuous
 62
    47
370
    25
100
AcDbLine
 10
6.843469699315641
 20
9.366337479317778
 30
0.0
 11
6.843469699315641
 21
8.914967588123838
 31
0.0
  0
LINE
  5
339
330
29E
100
AcDbEntity
  8
Dimensions
  6
Continuous
 62
    47
370
    25
100
AcDbLine
 10
6.745044504694555
 20
9.039967588123838
 30
0.0
 11
6.441894893936726
 21
9.039967588123838
 31
0.0
  0
LINE
  5
33A
330
29E
100
AcDbEntity
  8
Dimensions
  6
Continuous
 62
    47
370
    25
100
AcDbLine
 10
6.34346969931564
 20
9.039967588123838
 30
0.0
 11
5.240651183351144
 21
9.039967588123838
 31
0.0
  0
SOLID
  5
33B
330
29E
100
AcDbEntity
  8
Dimensions
  6
Continuous
 62
    47
100
AcDbTrace
 10
6.745044504694555
 20
9.056371787227352
 30
0.0
 11
6.745044504694555
 21
9.023563389020324
 31
0.0
 12
6.843469699315641
 22
9.039967588123838
 32
0.0
 13
6.843469699315641
 23
9.039967588123838
 33
0.0
  0
SOLID
  5
33C
330
29E
100
AcDbEntity
  8
Dimensions
  6
Continuous
 62
    47
100
AcDbTrace
 10
6.441894893936726
 20
9.056371787227352
 30
0.0
 11
6.441894893936726
 21
9.023563389020324
 31
0.0
 12
6.34346969931564
 22
9.039967588123838
 32
0.0
 13
6.34346969931564
 23
9.039967588123838
 33
0.0
  0
MTEXT
  5
33D
330
29E
100
AcDbEntity
  8
Dimensions
  6
Continuous
 62
    47
370
    25
100
AcDbMText
 10
5.019026327474483
 20
9.039967588123838
 30
0.0
 40
0.1200000047683716
 41
0.0
 71
     5
 72
     1
  1
\A1;0.500
  7
TextStyle8
 73
     1
 44
1.0
  0
POINT
  5
33E
330
29E
100
AcDbEntity
  8
Defpoints
  6
Continuous
 62
     0
100
AcDbPoint
 10
6.34346969931564
 20
9.428837479317778
 30
0.0
  0
POINT
  5
33F
330
29E
100
AcDbEntity
  8
Defpoints
  6
Continuous
 62
     0
100
AcDbPoint
 10
6.843469699315641
 20
9.428837479317778
 30
0.0
  0
POINT
  5
340
330
29E
100
AcDbEntity
  8
Defpoints
  6
Continuous
 62
     0
100
AcDbPoint
 10
6.843469699315641
 20
9.039967588123838
 30
0.0
  0
ENDBLK
  5
2AA
330
29E
100
AcDbEntity
  8
0
100
AcDbBlockEnd
  0
BLOCK
  5
34D
330
342
100
AcDbEntity
  8
0
100
AcDbBlockBegin
  2
*D5
 70
     1
 10
0.0
 20
0.0
 30
0.0
  3
*D5
  1

  0
LINE
  5
3DB
330
342
100
AcDbEntity
  8
Dimensions
  6
Continuous
 62
    47
370
    25
100
AcDbLine
 10
14.66846969931564
 20
12.64933747931778
 30
0.0
 11
14.66846969931564
 21
16.41262488089258
 31
0.0
  0
LINE
  5
3DC
330
342
100
AcDbEntity
  8
Dimensions
  6
Continuous
 62
    47
370
    25
100
AcDbLine
 10
5.51846969931564
 20
12.64933747931778
 30
0.0
 11
5.51846969931564
 21
16.41262488089258
 31
0.0
  0
LINE
  5
3DD
330
342
100
AcDbEntity
  8
Dimensions
  6
Continuous
 62
    47
370
    25
100
AcDbLine
 10
14.57004450469455
 20
16.28762488089258
 30
0.0
 11
10.63697392423672
 21
16.28762488089258
 31
0.0
  0
LINE
  5
3DE
330
342
100
AcDbEntity
  8
Dimensions
  6
Continuous
 62
    47
370
    25
100
AcDbLine
 10
5.616894893936726
 20
16.28762488089258
 30
0.0
 11
10.19372421248339
 21
16.28762488089258
 31
0.0
  0
SOLID
  5
3DF
330
342
100
AcDbEntity
  8
Dimensions
  6
Continuous
 62
    47
100
AcDbTrace
 10
14.57004450469455
 20
16.3040290799961
 30
0.0
 11
14.57004450469455
 21
16.27122068178907
 31
0.0
 12
14.66846969931564
 22
16.28762488089258
 32
0.0
 13
14.66846969931564
 23
16.28762488089258
 33
0.0
  0
SOLID
  5
3E0
330
342
100
AcDbEntity
  8
Dimensions
  6
Continuous
 62
    47
100
AcDbTrace
 10
5.616894893936726
 20
16.3040290799961
 30
0.0
 11
5.616894893936726
 21
16.27122068178907
 31
0.0
 12
5.51846969931564
 22
16.28762488089258
 32
0.0
 13
5.51846969931564
 23
16.28762488089258
 33
0.0
  0
MTEXT
  5
3E1
330
342
100
AcDbEntity
  8
Dimensions
  6
Continuous
 62
    47
370
    25
100
AcDbMText
 10
10.41534906836006
 20
16.28762488089258
 30
0.0
 40
0.1200000047683716
 41
0.0
 71
     5
 72
     1
  1
\A1;9.150
  7
TextStyle8
 73
     1
 44
1.0
  0
POINT
  5
3E2
330
342
100
AcDbEntity
  8
Defpoints
  6
Continuous
 62
     0
100
AcDbPoint
 10
14.66846969931564
 20
12.58683747931778
 30
0.0
  0
POINT
  5
3E3
330
342
100
AcDbEntity
  8
Defpoints
  6
Continuous
 62
     0
100
AcDbPoint
 10
5.51846969931564
 20
12.58683747931778
 30
0.0
  0
POINT
  5
3E4
330
342
100
AcDbEntity
  8
Defpoints
  6
Continuous
 62
     0
100
AcDbPoint
 10
5.51846969931564
 20
16.28762488089258
 30
0.0
  0
ENDBLK
  5
34E
330
342
100
AcDbEntity
  8
0
100
AcDbBlockEnd
  0
BLOCK
  5
3F1
330
3E6
100
AcDbEntity
  8
0
100
AcDbBlockBegin
  2
*D6
 70
     1
 10
0.0
 20
0.0
 30
0.0
  3
*D6
  1

  0
LINE
  5
47F
330
3E6
100
AcDbEntity
  8
Dimensions
  6
Continuous
 62
    47
370
    25
100
AcDbLine
 10
14.39646969931564
 20
12.32100218173031
 30
0.0
 11
14.39646969931564
 21
16.14006690579473
 31
0.0
  0
LINE
  5
480
330
3E6
100
AcDbEntity
  8
Dimensions
  6
Continuous
 62
    47
370
    25
100
AcDbLine
 10
5.51846969931564
 20
12.64933747931778
 30
0.0
 11
5.51846969931564
 21
16.14006690579473
 31
0.0
  0
LINE
  5
481
330
3E6
100
AcDbEntity
  8
Dimensions
  6
Continuous
 62
    47
370
    25
100
AcDbLine
 10
14.29804450469455
 20
16.01506690579473
 30
0.0
 11
13.40585305031267
 21
16.01506690579473
 31
0.0
  0
LINE
  5
482
330
3E6
100
AcDbEntity
  8
Dimensions
  6
Continuous
 62
    47
370
    25
100
AcDbLine
 10
5.616894893936726
 20
16.01506690579473
 30
0.0
 11
12.96183389787588
 21
16.01506690579473
 31
0.0
  0
SOLID
  5
483
330
3E6
100
AcDbEntity
  8
Dimensions
  6
Continuous
 62
    47
100
AcDbTrace
 10
14.29804450469455
 20
16.03147110489824
 30
0.0
 11
14.29804450469455
 21
15.99866270669122
 31
0.0
 12
14.39646969931564
 22
16.01506690579473
 32
0.0
 13
14.39646969931564
 23
16.01506690579473
 33
0.0
  0
SOLID
  5
484
330
3E6
100
AcDbEntity
  8
Dimensions
  6
Continuous
 62
    47
100
AcDbTrace
 10
5.616894893936726
 20
16.03147110489824
 30
0.0
 11
5.616894893936726
 21
15.99866270669122
 31
0.0
 12
5.51846969931564
 22
16.01506690579473
 32
0.0
 13
5.51846969931564
 23
16.01506690579473
 33
0.0
  0
MTEXT
  5
485
330
3E6
100
AcDbEntity
  8
Dimensions
  6
Continuous
 62
    47
370
    25
100
AcDbMText
 10
13.18384347409427
 20
16.01506690579473
 30
0.0
 40
0.1200000047683716
 41
0.0
 71
     5
 72
     1
  1
\A1;8.878
  7
TextStyle8
 73
     1
 44
1.0
  0
POINT
  5
486
330
3E6
100
AcDbEntity
  8
Defpoints
  6
Continuous
 62
     0
100
AcDbPoint
 10
14.39646969931564
 20
12.25850218173031
 30
0.0
  0
POINT
  5
487
330
3E6
100
AcDbEntity
  8
Defpoints
  6
Continuous
 62
     0
100
AcDbPoint
 10
5.51846969931564
 20
12.58683747931778
 30
0.0
  0
POINT
  5
488
330
3E6
100
AcDbEntity
  8
Defpoints
  6
Continuous
 62
     0
100
AcDbPoint
 10
5.51846969931564
 20
16.01506690579473
 30
0.0
  0
ENDBLK
  5
3F2
330
3E6
100
AcDbEntity
  8
0
100
AcDbBlockEnd
  0
BLOCK
  5
495
330
48A
100
AcDbEntity
  8
0
100
AcDbBlockBegin
  2
*D7
 70
     1
 10
0.0
 20
0.0
 30
0.0
  3
*D7
  1

  0
LINE
  5
523
330
48A
100
AcDbEntity
  8
Dimensions
  6
Continuous
 62
    47
370
    25
100
AcDbLine
 10
13.84346969931564
 20
10.49133747931777
 30
0.0
 11
13.84346969931564
 21
15.79182861392929
 31
0.0
  0
LINE
  5
524
330
48A
100
AcDbEntity
  8
Dimensions
  6
Continuous
 62
    47
370
    25
100
AcDbLine
 10
5.51846969931564
 20
12.64933747931778
 30
0.0
 11
5.51846969931564
 21
15.79182861392929
 31
0.0
  0
LINE
  5
525
330
48A
100
AcDbEntity
  8
Dimensions
  6
Continuous
 62
    47
370
    25
100
AcDbLine
 10
13.74504450469455
 20
15.66682861392929
 30
0.0
 11
12.72709616102861
 21
15.66682861392929
 31
0.0
  0
LINE
  5
526
330
48A
100
AcDbEntity
  8
Dimensions
  6
Continuous
 62
    47
370
    25
100
AcDbLine
 10
5.616894893936726
 20
15.66682861392929
 30
0.0
 11
12.28246145604504
 21
15.66682861392929
 31
0.0
  0
SOLID
  5
527
330
48A
100
AcDbEntity
  8
Dimensions
  6
Continuous
 62
    47
100
AcDbTrace
 10
13.74504450469455
 20
15.68323281303281
 30
0.0
 11
13.74504450469455
 21
15.65042441482578
 31
0.0
 12
13.84346969931564
 22
15.66682861392929
 32
0.0
 13
13.84346969931564
 23
15.66682861392929
 33
0.0
  0
SOLID
  5
528
330
48A
100
AcDbEntity
  8
Dimensions
  6
Continuous
 62
    47
100
AcDbTrace
 10
5.616894893936726
 20
15.68323281303281
 30
0.0
 11
5.616894893936726
 21
15.65042441482578
 31
0.0
 12
5.51846969931564
 22
15.66682861392929
 32
0.0
 13
5.51846969931564
 23
15.66682861392929
 33
0.0
  0
MTEXT
  5
529
330
48A
100
AcDbEntity
  8
Dimensions
  6
Continuous
 62
    47
370
    25
100
AcDbMText
 10
12.50477880853682
 20
15.66682861392929
 30
0.0
 40
0.1200000047683716
 41
0.0
 71
     5
 72
     1
  1
\A1;8.325
  7
TextStyle8
 73
     1
 44
1.0
  0
POINT
  5
52A
330
48A
100
AcDbEntity
  8
Defpoints
  6
Continuous
 62
     0
100
AcDbPoint
 10
13.84346969931564
 20
10.42883747931778
 30
0.0
  0
POINT
  5
52B
330
48A
100
AcDbEntity
  8
Defpoints
  6
Continuous
 62
     0
100
AcDbPoint
 10
5.51846969931564
 20
12.58683747931778
 30
0.0
  0
POINT
  5
52C
330
48A
100
AcDbEntity
  8
Defpoints
  6
Continuous
 62
     0
100
AcDbPoint
 10
5.51846969931564
 20
15.66682861392929
 30
0.0
  0
ENDBLK
  5
496
330
48A
100
AcDbEntity
  8
0
100
AcDbBlockEnd
  0
BLOCK
  5
539
330
52E
100
AcDbEntity
  8
0
100
AcDbBlockBegin
  2
*D8
 70
     1
 10
0.0
 20
0.0
 30
0.0
  3
*D8
  1

  0
LINE
  5
5C7
330
52E
100
AcDbEntity
  8
Dimensions
  6
Continuous
 62
    47
370
    25
100
AcDbLine
 10
13.69346969931564
 20
11.89933747931778
 30
0.0
 11
13.69346969931564
 21
15.53064989503021
 31
0.0
  0
LINE
  5
5C8
330
52E
100
AcDbEntity
  8
Dimensions
  6
Continuous
 62
    47
370
    25
100
AcDbLine
 10
5.51846969931564
 20
12.64933747931778
 30
0.0
 11
5.51846969931564
 21
15.53064989503021
 31
0.0
  0
LINE
  5
5C9
330
52E
100
AcDbEntity
  8
Dimensions
  6
Continuous
 62
    47
370
    25
100
AcDbLine
 10
13.59504450469455
 20
15.40564989503022
 30
0.0
 11
11.99579575196673
 21
15.40564989503022
 31
0.0
  0
LINE
  5
5CA
330
52E
100
AcDbEntity
  8
Dimensions
  6
Continuous
 62
    47
370
    25
100
AcDbLine
 10
5.616894893936726
 20
15.40564989503022
 30
0.0
 11
11.55116104698317
 21
15.40564989503022
 31
0.0
  0
SOLID
  5
5CB
330
52E
100
AcDbEntity
  8
Dimensions
  6
Continuous
 62
    47
100
AcDbTrace
 10
13.59504450469455
 20
15.42205409413373
 30
0.0
 11
13.59504450469455
 21
15.3892456959267
 31
0.0
 12
13.69346969931564
 22
15.40564989503022
 32
0.0
 13
13.69346969931564
 23
15.40564989503022
 33
0.0
  0
SOLID
  5
5CC
330
52E
100
AcDbEntity
  8
Dimensions
  6
Continuous
 62
    47
100
AcDbTrace
 10
5.616894893936726
 20
15.42205409413373
 30
0.0
 11
5.616894893936726
 21
15.3892456959267
 31
0.0
 12
5.51846969931564
 22
15.40564989503022
 32
0.0
 13
5.51846969931564
 23
15.40564989503022
 33
0.0
  0
MTEXT
  5
5CD
330
52E
100
AcDbEntity
  8
Dimensions
  6
Continuous
 62
    47
370
    25
100
AcDbMText
 10
11.77347839947495
 20
15.40564989503022
 30
0.0
 40
0.1200000047683716
 41
0.0
 71
     5
 72
     1
  1
\A1;8.175
  7
TextStyle8
 73
     1
 44
1.0
  0
POINT
  5
5CE
330
52E
100
AcDbEntity
  8
Defpoints
  6
Continuous
 62
     0
100
AcDbPoint
 10
13.69346969931564
 20
11.83683747931778
 30
0.0
  0
POINT
  5
5CF
330
52E
100
AcDbEntity
  8
Defpoints
  6
Continuous
 62
     0
100
AcDbPoint
 10
5.51846969931564
 20
12.58683747931778
 30
0.0
  0
POINT
  5
5D0
330
52E
100
AcDbEntity
  8
Defpoints
  6
Continuous
 62
     0
100
AcDbPoint
 10
5.51846969931564
 20
15.40564989503022
 30
0.0
  0
ENDBLK
  5
53A
330
52E
100
AcDbEntity
  8
0
100
AcDbBlockEnd
  0
BLOCK
  5
5DD
330
5D2
100
AcDbEntity
  8
0
100
AcDbBlockBegin
  2
*D9
 70
     1
 10
0.0
 20
0.0
 30
0.0
  3
*D9
  1

  0
LINE
  5
66B
330
5D2
100
AcDbEntity
  8
Dimensions
  6
Continuous
 62
    47
370
    25
100
AcDbLine
 10
12.49346969931564
 20
11.89933747931777
 30
0.0
 11
12.49346969931564
 21
15.23464734694459
 31
0.0
  0
LINE
  5
66C
330
5D2
100
AcDbEntity
  8
Dimensions
  6
Continuous
 62
    47
370
    25
100
AcDbLine
 10
5.51846969931564
 20
12.64933747931778
 30
0.0
 11
5.51846969931564
 21
15.23464734694459
 31
0.0
  0
LINE
  5
66D
330
5D2
100
AcDbEntity
  8
Dimensions
  6
Continuous
 62
    47
370
    25
100
AcDbLine
 10
12.39504450469455
 20
15.10964734694459
 30
0.0
 11
11.3343738331158
 21
15.10964734694459
 31
0.0
  0
LINE
  5
66E
330
5D2
100
AcDbEntity
  8
Dimensions
  6
Continuous
 62
    47
370
    25
100
AcDbLine
 10
5.616894893936726
 20
15.10964734694459
 30
0.0
 11
10.88927746372216
 21
15.10964734694459
 31
0.0
  0
SOLID
  5
66F
330
5D2
100
AcDbEntity
  8
Dimensions
  6
Continuous
 62
    47
100
AcDbTrace
 10
12.39504450469455
 20
15.1260515460481
 30
0.0
 11
12.39504450469455
 21
15.09324314784108
 31
0.0
 12
12.49346969931564
 22
15.10964734694459
 32
0.0
 13
12.49346969931564
 23
15.10964734694459
 33
0.0
  0
SOLID
  5
670
330
5D2
100
AcDbEntity
  8
Dimensions
  6
Continuous
 62
    47
100
AcDbTrace
 10
5.616894893936726
 20
15.1260515460481
 30
0.0
 11
5.616894893936726
 21
15.09324314784108
 31
0.0
 12
5.51846969931564
 22
15.10964734694459
 32
0.0
 13
5.51846969931564
 23
15.10964734694459
 33
0.0
  0
MTEXT
  5
671
330
5D2
100
AcDbEntity
  8
Dimensions
  6
Continuous
 62
    47
370
    25
100
AcDbMText
 10
11.11182564841898
 20
15.10964734694459
 30
0.0
 40
0.1200000047683716
 41
0.0
 71
     5
 72
     1
  1
\A1;6.975
  7
TextStyle8
 73
     1
 44
1.0
  0
POINT
  5
672
330
5D2
100
AcDbEntity
  8
Defpoints
  6
Continuous
 62
     0
100
AcDbPoint
 10
12.49346969931564
 20
11.83683747931777
 30
0.0
  0
POINT
  5
673
330
5D2
100
AcDbEntity
  8
Defpoints
  6
Continuous
 62
     0
100
AcDbPoint
 10
5.51846969931564
 20
12.58683747931778
 30
0.0
  0
POINT
  5
674
330
5D2
100
AcDbEntity
  8
Defpoints
  6
Continuous
 62
     0
100
AcDbPoint
 10
5.51846969931564
 20
15.10964734694459
 30
0.0
  0
ENDBLK
  5
5DE
330
5D2
100
AcDbEntity
  8
0
100
AcDbBlockEnd
  0
BLOCK
  5
681
330
676
100
AcDbEntity
  8
0
100
AcDbBlockBegin
  2
*D10
 70
     1
 10
0.0
 20
0.0
 30
0.0
  3
*D10
  1

  0
LINE
  5
70F
330
676
100
AcDbEntity
  8
Dimensions
  6
Continuous
 62
    47
370
    25
100
AcDbLine
 10
11.89346969931563
 20
12.32100218173031
 30
0.0
 11
11.89346969931563
 21
15.00829245723206
 31
0.0
  0
LINE
  5
710
330
676
100
AcDbEntity
  8
Dimensions
  6
Continuous
 62
    47
370
    25
100
AcDbLine
 10
5.51846969931564
 20
12.64933747931778
 30
0.0
 11
5.51846969931564
 21
15.00829245723206
 31
0.0
  0
LINE
  5
711
330
676
100
AcDbEntity
  8
Dimensions
  6
Continuous
 62
    47
370
    25
100
AcDbLine
 10
11.79504450469455
 20
14.88329245723206
 30
0.0
 11
10.46377810804214
 21
14.88329245723206
 31
0.0
  0
LINE
  5
712
330
676
100
AcDbEntity
  8
Dimensions
  6
Continuous
 62
    47
370
    25
100
AcDbLine
 10
5.616894893936726
 20
14.88329245723206
 30
0.0
 11
10.0186817386485
 21
14.88329245723206
 31
0.0
  0
SOLID
  5
713
330
676
100
AcDbEntity
  8
Dimensions
  6
Continuous
 62
    47
100
AcDbTrace
 10
11.79504450469455
 20
14.89969665633557
 30
0.0
 11
11.79504450469455
 21
14.86688825812854
 31
0.0
 12
11.89346969931563
 22
14.88329245723206
 32
0.0
 13
11.89346969931563
 23
14.88329245723206
 33
0.0
  0
SOLID
  5
714
330
676
100
AcDbEntity
  8
Dimensions
  6
Continuous
 62
    47
100
AcDbTrace
 10
5.616894893936726
 20
14.89969665633557
 30
0.0
 11
5.616894893936726
 21
14.86688825812854
 31
0.0
 12
5.51846969931564
 22
14.88329245723206
 32
0.0
 13
5.51846969931564
 23
14.88329245723206
 33
0.0
  0
MTEXT
  5
715
330
676
100
AcDbEntity
  8
Dimensions
  6
Continuous
 62
    47
370
    25
100
AcDbMText
 10
10.24122992334532
 20
14.88329245723206
 30
0.0
 40
0.1200000047683716
 41
0.0
 71
     5
 72
     1
  1
\A1;6.375
  7
TextStyle8
 73
     1
 44
1.0
  0
POINT
  5
716
330
676
100
AcDbEntity
  8
Defpoints
  6
Continuous
 62
     0
100
AcDbPoint
 10
11.89346969931563
 20
12.25850218173031
 30
0.0
  0
POINT
  5
717
330
676
100
AcDbEntity
  8
Defpoints
  6
Continuous
 62
     0
100
AcDbPoint
 10
5.51846969931564
 20
12.58683747931778
 30
0.0
  0
POINT
  5
718
330
676
100
AcDbEntity
  8
Defpoints
  6
Continuous
 62
     0
100
AcDbPoint
 10
5.51846969931564
 20
14.88329245723206
 30
0.0
  0
ENDBLK
  5
682
330
676
100
AcDbEntity
  8
0
100
AcDbBlockEnd
  0
BLOCK
  5
725
330
71A
100
AcDbEntity
  8
0
100
AcDbBlockBegin
  2
*D11
 70
     1
 10
0.0
 20
0.0
 30
0.0
  3
*D11
  1

  0
LINE
  5
7B3
330
71A
100
AcDbEntity
  8
Dimensions
  6
Continuous
 62
    47
370
    25
100
AcDbLine
 10
11.29346969931564
 20
11.89933747931777
 30
0.0
 11
11.29346969931564
 21
14.74711373833298
 31
0.0
  0
LINE
  5
7B4
330
71A
100
AcDbEntity
  8
Dimensions
  6
Continuous
 62
    47
370
    25
100
AcDbLine
 10
5.51846969931564
 20
12.64933747931778
 30
0.0
 11
5.51846969931564
 21
14.74711373833298
 31
0.0
  0
LINE
  5
7B5
330
71A
100
AcDbEntity
  8
Dimensions
  6
Continuous
 62
    47
370
    25
100
AcDbLine
 10
11.19504450469455
 20
14.62211373833298
 30
0.0
 11
9.296872060170068
 21
14.62211373833298
 31
0.0
  0
LINE
  5
7B6
330
71A
100
AcDbEntity
  8
Dimensions
  6
Continuous
 62
    47
370
    25
100
AcDbLine
 10
5.616894893936726
 20
14.62211373833298
 30
0.0
 11
8.852391243323198
 21
14.62211373833298
 31
0.0
  0
SOLID
  5
7B7
330
71A
100
AcDbEntity
  8
Dimensions
  6
Continuous
 62
    47
100
AcDbTrace
 10
11.19504450469455
 20
14.63851793743649
 30
0.0
 11
11.19504450469455
 21
14.60570953922947
 31
0.0
 12
11.29346969931564
 22
14.62211373833298
 32
0.0
 13
11.29346969931564
 23
14.62211373833298
 33
0.0
  0
SOLID
  5
7B8
330
71A
100
AcDbEntity
  8
Dimensions
  6
Continuous
 62
    47
100
AcDbTrace
 10
5.616894893936726
 20
14.63851793743649
 30
0.0
 11
5.616894893936726
 21
14.60570953922947
 31
0.0
 12
5.51846969931564
 22
14.62211373833298
 32
0.0
 13
5.51846969931564
 23
14.62211373833298
 33
0.0
  0
MTEXT
  5
7B9
330
71A
100
AcDbEntity
  8
Dimensions
  6
Continuous
 62
    47
370
    25
100
AcDbMText
 10
9.074631651746633
 20
14.62211373833298
 30
0.0
 40
0.1200000047683716
 41
0.0
 71
     5
 72
     1
  1
\A1;5.775
  7
TextStyle8
 73
     1
 44
1.0
  0
POINT
  5
7BA
330
71A
100
AcDbEntity
  8
Defpoints
  6
Continuous
 62
     0
100
AcDbPoint
 10
11.29346969931564
 20
11.83683747931777
 30
0.0
  0
POINT
  5
7BB
330
71A
100
AcDbEntity
  8
Defpoints
  6
Continuous
 62
     0
100
AcDbPoint
 10
5.51846969931564
 20
12.58683747931778
 30
0.0
  0
POINT
  5
7BC
330
71A
100
AcDbEntity
  8
Defpoints
  6
Continuous
 62
     0
100
AcDbPoint
 10
5.51846969931564
 20
14.62211373833298
 30
0.0
  0
ENDBLK
  5
726
330
71A
100
AcDbEntity
  8
0
100
AcDbBlockEnd
  0
BLOCK
  5
7C9
330
7BE
100
AcDbEntity
  8
0
100
AcDbBlockBegin
  2
*D12
 70
     1
 10
0.0
 20
0.0
 30
0.0
  3
*D12
  1

  0
LINE
  5
857
330
7BE
100
AcDbEntity
  8
Dimensions
  6
Continuous
 62
    47
370
    25
100
AcDbLine
 10
8.893469699315641
 20
11.89933747931777
 30
0.0
 11
8.893469699315641
 21
14.23883356402059
 31
0.0
  0
LINE
  5
858
330
7BE
100
AcDbEntity
  8
Dimensions
  6
Continuous
 62
    47
370
    25
100
AcDbLine
 10
5.51846969931564
 20
12.64933747931778
 30
0.0
 11
5.51846969931564
 21
14.23883356402059
 31
0.0
  0
LINE
  5
859
330
7BE
100
AcDbEntity
  8
Dimensions
  6
Continuous
 62
    47
370
    25
100
AcDbLine
 10
8.795044504694555
 20
14.11383356402059
 30
0.0
 11
7.438018401252465
 21
14.11383356402059
 31
0.0
  0
LINE
  5
85A
330
7BE
100
AcDbEntity
  8
Dimensions
  6
Continuous
 62
    47
370
    25
100
AcDbLine
 10
5.616894893936726
 20
14.11383356402059
 30
0.0
 11
6.993614528473942
 21
14.11383356402059
 31
0.0
  0
SOLID
  5
85B
330
7BE
100
AcDbEntity
  8
Dimensions
  6
Continuous
 62
    47
100
AcDbTrace
 10
8.795044504694555
 20
14.13023776312411
 30
0.0
 11
8.795044504694555
 21
14.09742936491708
 31
0.0
 12
8.893469699315641
 22
14.11383356402059
 32
0.0
 13
8.893469699315641
 23
14.11383356402059
 33
0.0
  0
SOLID
  5
85C
330
7BE
100
AcDbEntity
  8
Dimensions
  6
Continuous
 62
    47
100
AcDbTrace
 10
5.616894893936726
 20
14.13023776312411
 30
0.0
 11
5.616894893936726
 21
14.09742936491708
 31
0.0
 12
5.51846969931564
 22
14.11383356402059
 32
0.0
 13
5.51846969931564
 23
14.11383356402059
 33
0.0
  0
MTEXT
  5
85D
330
7BE
100
AcDbEntity
  8
Dimensions
  6
Continuous
 62
    47
370
    25
100
AcDbMText
 10
7.215816464863204
 20
14.11383356402059
 30
0.0
 40
0.1200000047683716
 41
0.0
 71
     5
 72
     1
  1
\A1;3.375
  7
TextStyle8
 73
     1
 44
1.0
  0
POINT
  5
85E
330
7BE
100
AcDbEntity
  8
Defpoints
  6
Continuous
 62
     0
100
AcDbPoint
 10
8.893469699315641
 20
11.83683747931777
 30
0.0
  0
POINT
  5
85F
330
7BE
100
AcDbEntity
  8
Defpoints
  6
Continuous
 62
     0
100
AcDbPoint
 10
5.51846969931564
 20
12.58683747931778
 30
0.0
  0
POINT
  5
860
330
7BE
100
AcDbEntity
  8
Defpoints
  6
Continuous
 62
     0
100
AcDbPoint
 10
5.51846969931564
 20
14.11383356402059
 30
0.0
  0
ENDBLK
  5
7CA
330
7BE
100
AcDbEntity
  8
0
100
AcDbBlockEnd
  0
BLOCK
  5
86D
330
862
100
AcDbEntity
  8
0
100
AcDbBlockBegin
  2
*D13
 70
     1
 10
0.0
 20
0.0
 30
0.0
  3
*D13
  1

  0
LINE
  5
8FB
330
862
100
AcDbEntity
  8
Dimensions
  6
Continuous
 62
    47
370
    25
100
AcDbLine
 10
8.293469699315641
 20
12.32100218173031
 30
0.0
 11
8.293469699315641
 21
13.94616566704248
 31
0.0
  0
LINE
  5
8FC
330
862
100
AcDbEntity
  8
Dimensions
  6
Continuous
 62
    47
370
    25
100
AcDbLine
 10
5.51846969931564
 20
12.64933747931778
 30
0.0
 11
5.51846969931564
 21
13.94616566704248
 31
0.0
  0
LINE
  5
8FD
330
862
100
AcDbEntity
  8
Dimensions
  6
Continuous
 62
    47
370
    25
100
AcDbLine
 10
8.195044504694555
 20
13.82116566704247
 30
0.0
 11
6.390044139278397
 21
13.82116566704247
 31
0.0
  0
LINE
  5
8FE
330
862
100
AcDbEntity
  8
Dimensions
  6
Continuous
 62
    47
370
    25
100
AcDbLine
 10
5.616894893936726
 20
13.82116566704247
 30
0.0
 11
5.943639720722862
 21
13.82116566704247
 31
0.0
  0
SOLID
  5
8FF
330
862
100
AcDbEntity
  8
Dimensions
  6
Continuous
 62
    47
100
AcDbTrace
 10
8.195044504694555
 20
13.83756986614599
 30
0.0
 11
8.195044504694555
 21
13.80476146793896
 31
0.0
 12
8.293469699315641
 22
13.82116566704247
 32
0.0
 13
8.293469699315641
 23
13.82116566704247
 33
0.0
  0
SOLID
  5
900
330
862
100
AcDbEntity
  8
Dimensions
  6
Continuous
 62
    47
100
AcDbTrace
 10
5.616894893936726
 20
13.83756986614599
 30
0.0
 11
5.616894893936726
 21
13.80476146793896
 31
0.0
 12
5.51846969931564
 22
13.82116566704247
 32
0.0
 13
5.51846969931564
 23
13.82116566704247
 33
0.0
  0
MTEXT
  5
901
330
862
100
AcDbEntity
  8
Dimensions
  6
Continuous
 62
    47
370
    25
100
AcDbMText
 10
6.16684193000063
 20
13.82116566704247
 30
0.0
 40
0.1200000047683716
 41
0.0
 71
     5
 72
     1
  1
\A1;2.775
  7
TextStyle8
 73
     1
 44
1.0
  0
POINT
  5
902
330
862
100
AcDbEntity
  8
Defpoints
  6
Continuous
 62
     0
100
AcDbPoint
 10
8.293469699315641
 20
12.25850218173031
 30
0.0
  0
POINT
  5
903
330
862
100
AcDbEntity
  8
Defpoints
  6
Continuous
 62
     0
100
AcDbPoint
 10
5.51846969931564
 20
12.58683747931778
 30
0.0
  0
POINT
  5
904
330
862
100
AcDbEntity
  8
Defpoints
  6
Continuous
 62
     0
100
AcDbPoint
 10
5.51846969931564
 20
13.82116566704247
 30
0.0
  0
ENDBLK
  5
86E
330
862
100
AcDbEntity
  8
0
100
AcDbBlockEnd
  0
BLOCK
  5
911
330
906
100
AcDbEntity
  8
0
100
AcDbBlockBegin
  2
*D14
 70
     1
 10
0.0
 20
0.0
 30
0.0
  3
*D14
  1

  0
LINE
  5
99F
330
906
100
AcDbEntity
  8
Dimensions
  6
Continuous
 62
    47
370
    25
100
AcDbLine
 10
7.693469699315641
 20
11.89933747931777
 30
0.0
 11
7.693469699315641
 21
13.45863205843087
 31
0.0
  0
LINE
  5
9A0
330
906
100
AcDbEntity
  8
Dimensions
  6
Continuous
 62
    47
370
    25
100
AcDbLine
 10
5.51846969931564
 20
12.64933747931778
 30
0.0
 11
5.51846969931564
 21
13.45863205843087
 31
0.0
  0
LINE
  5
9A1
330
906
100
AcDbEntity
  8
Dimensions
  6
Continuous
 62
    47
370
    25
100
AcDbLine
 10
7.595044504694555
 20
13.33363205843086
 30
0.0
 11
7.069108804835847
 21
13.33363205843086
 31
0.0
  0
LINE
  5
9A2
330
906
100
AcDbEntity
  8
Dimensions
  6
Continuous
 62
    47
370
    25
100
AcDbLine
 10
5.616894893936726
 20
13.33363205843086
 30
0.0
 11
6.622704386280313
 21
13.33363205843086
 31
0.0
  0
SOLID
  5
9A3
330
906
100
AcDbEntity
  8
Dimensions
  6
Continuous
 62
    47
100
AcDbTrace
 10
7.595044504694555
 20
13.35003625753438
 30
0.0
 11
7.595044504694555
 21
13.31722785932735
 31
0.0
 12
7.693469699315641
 22
13.33363205843086
 32
0.0
 13
7.693469699315641
 23
13.33363205843086
 33
0.0
  0
SOLID
  5
9A4
330
906
100
AcDbEntity
  8
Dimensions
  6
Continuous
 62
    47
100
AcDbTrace
 10
5.616894893936726
 20
13.35003625753438
 30
0.0
 11
5.616894893936726
 21
13.31722785932735
 31
0.0
 12
5.51846969931564
 22
13.33363205843086
 32
0.0
 13
5.51846969931564
 23
13.33363205843086
 33
0.0
  0
MTEXT
  5
9A5
330
906
100
AcDbEntity
  8
Dimensions
  6
Continuous
 62
    47
370
    25
100
AcDbMText
 10
6.84590659555808
 20
13.33363205843086
 30
0.0
 40
0.1200000047683716
 41
0.0
 71
     5
 72
     1
  1
\A1;2.175
  7
TextStyle8
 73
     1
 44
1.0
  0
POINT
  5
9A6
330
906
100
AcDbEntity
  8
Defpoints
  6
Continuous
 62
     0
100
AcDbPoint
 10
7.693469699315641
 20
11.83683747931777
 30
0.0
  0
POINT
  5
9A7
330
906
100
AcDbEntity
  8
Defpoints
  6
Continuous
 62
     0
100
AcDbPoint
 10
5.51846969931564
 20
12.58683747931778
 30
0.0
  0
POINT
  5
9A8
330
906
100
AcDbEntity
  8
Defpoints
  6
Continuous
 62
     0
100
AcDbPoint
 10
5.51846969931564
 20
13.33363205843086
 30
0.0
  0
ENDBLK
  5
912
330
906
100
AcDbEntity
  8
0
100
AcDbBlockEnd
  0
BLOCK
  5
9B5
330
9AA
100
AcDbEntity
  8
0
100
AcDbBlockBegin
  2
*D15
 70
     1
 10
0.0
 20
0.0
 30
0.0
  3
*D15
  1

  0
LINE
  5
A43
330
9AA
100
AcDbEntity
  8
Dimensions
  6
Continuous
 62
    47
370
    25
100
AcDbLine
 10
6.34346969931564
 20
11.89933747931777
 30
0.0
 11
6.34346969931564
 21
13.21486525412506
 31
0.0
  0
LINE
  5
A44
330
9AA
100
AcDbEntity
  8
Dimensions
  6
Continuous
 62
    47
370
    25
100
AcDbLine
 10
5.51846969931564
 20
12.64933747931778
 30
0.0
 11
5.51846969931564
 21
13.21486525412506
 31
0.0
  0
LINE
  5
A45
330
9AA
100
AcDbEntity
  8
Dimensions
  6
Continuous
 62
    47
370
    25
100
AcDbLine
 10
6.245044504694554
 20
13.08986525412506
 30
0.0
 11
5.616894893936726
 21
13.08986525412506
 31
0.0
  0
LINE
  5
A46
330
9AA
100
AcDbEntity
  8
Dimensions
  6
Continuous
 62
    47
370
    25
100
AcDbLine
 10
5.51846969931564
 20
13.08986525412506
 30
0.0
 11
4.943893434801799
 21
13.08986525412506
 31
0.0
  0
SOLID
  5
A47
330
9AA
100
AcDbEntity
  8
Dimensions
  6
Continuous
 62
    47
100
AcDbTrace
 10
6.245044504694554
 20
13.10626945322857
 30
0.0
 11
6.245044504694554
 21
13.07346105502154
 31
0.0
 12
6.34346969931564
 22
13.08986525412506
 32
0.0
 13
6.34346969931564
 23
13.08986525412506
 33
0.0
  0
SOLID
  5
A48
330
9AA
100
AcDbEntity
  8
Dimensions
  6
Continuous
 62
    47
100
AcDbTrace
 10
5.616894893936726
 20
13.10626945322857
 30
0.0
 11
5.616894893936726
 21
13.07346105502154
 31
0.0
 12
5.51846969931564
 22
13.08986525412506
 32
0.0
 13
5.51846969931564
 23
13.08986525412506
 33
0.0
  0
MTEXT
  5
A49
330
9AA
100
AcDbEntity
  8
Dimensions
  6
Continuous
 62
    47
370
    25
100
AcDbMText
 10
4.721653026378365
 20
13.08986525412506
 30
0.0
 40
0.1200000047683716
 41
0.0
 71
     5
 72
     1
  1
\A1;0.825
  7
TextStyle8
 73
     1
 44
1.0
  0
POINT
  5
A4A
330
9AA
100
AcDbEntity
  8
Defpoints
  6
Continuous
 62
     0
100
AcDbPoint
 10
6.34346969931564
 20
11.83683747931777
 30
0.0
  0
POINT
  5
A4B
330
9AA
100
AcDbEntity
  8
Defpoints
  6
Continuous
 62
     0
100
AcDbPoint
 10
5.51846969931564
 20
12.58683747931778
 30
0.0
  0
POINT
  5
A4C
330
9AA
100
AcDbEntity
  8
Defpoints
  6
Continuous
 62
     0
100
AcDbPoint
 10
5.51846969931564
 20
13.08986525412506
 30
0.0
  0
ENDBLK
  5
9B6
330
9AA
100
AcDbEntity
  8
0
100
AcDbBlockEnd
  0
BLOCK
  5
A59
330
A4E
100
AcDbEntity
  8
0
100
AcDbBlockBegin
  2
*D16
 70
     1
 10
0.0
 20
0.0
 30
0.0
  3
*D16
  1

  0
LINE
  5
AE7
330
A4E
100
AcDbEntity
  8
Dimensions
  6
Continuous
 62
    47
370
    25
100
AcDbLine
 10
5.790469699315639
 20
12.32100218173031
 30
0.0
 11
5.790469699315639
 21
12.91886270603944
 31
0.0
  0
LINE
  5
AE8
330
A4E
100
AcDbEntity
  8
Dimensions
  6
Continuous
 62
    47
370
    25
100
AcDbLine
 10
5.51846969931564
 20
12.64933747931778
 30
0.0
 11
5.51846969931564
 21
12.91886270603944
 31
0.0
  0
LINE
  5
AE9
330
A4E
100
AcDbEntity
  8
Dimensions
  6
Continuous
 62
    47
370
    25
100
AcDbLine
 10
5.692044504694553
 20
12.79386270603944
 30
0.0
 11
5.616894893936726
 21
12.79386270603944
 31
0.0
  0
LINE
  5
AEA
330
A4E
100
AcDbEntity
  8
Dimensions
  6
Continuous
 62
    47
370
    25
100
AcDbLine
 10
5.51846969931564
 20
12.79386270603944
 30
0.0
 11
4.855833589405928
 21
12.79386270603944
 31
0.0
  0
SOLID
  5
AEB
330
A4E
100
AcDbEntity
  8
Dimensions
  6
Continuous
 62
    47
100
AcDbTrace
 10
5.692044504694553
 20
12.81026690514295
 30
0.0
 11
5.692044504694553
 21
12.77745850693592
 31
0.0
 12
5.790469699315639
 22
12.79386270603944
 32
0.0
 13
5.790469699315639
 23
12.79386270603944
 33
0.0
  0
SOLID
  5
AEC
330
A4E
100
AcDbEntity
  8
Dimensions
  6
Continuous
 62
    47
100
AcDbTrace
 10
5.616894893936726
 20
12.81026690514295
 30
0.0
 11
5.616894893936726
 21
12.77745850693592
 31
0.0
 12
5.51846969931564
 22
12.79386270603944
 32
0.0
 13
5.51846969931564
 23
12.79386270603944
 33
0.0
  0
MTEXT
  5
AED
330
A4E
100
AcDbEntity
  8
Dimensions
  6
Continuous
 62
    47
370
    25
100
AcDbMText
 10
4.634593453871
 20
12.79386270603944
 30
0.0
 40
0.1200000047683716
 41
0.0
 71
     5
 72
     1
  1
\A1;0.272
  7
TextStyle8
 73
     1
 44
1.0
  0
POINT
  5
AEE
330
A4E
100
AcDbEntity
  8
Defpoints
  6
Continuous
 62
     0
100
AcDbPoint
 10
5.790469699315639
 20
12.25850218173031
 30
0.0
  0
POINT
  5
AEF
330
A4E
100
AcDbEntity
  8
Defpoints
  6
Continuous
 62
     0
100
AcDbPoint
 10
5.51846969931564
 20
12.58683747931778
 30
0.0
  0
POINT
  5
AF0
330
A4E
100
AcDbEntity
  8
Defpoints
  6
Continuous
 62
     0
100
AcDbPoint
 10
5.51846969931564
 20
12.79386270603944
 30
0.0
  0
ENDBLK
  5
A5A
330
A4E
100
AcDbEntity
  8
0
100
AcDbBlockEnd
  0
BLOCK
  5
AFD
330
AF2
100
AcDbEntity
  8
0
100
AcDbBlockBegin
  2
*D17
 70
     1
 10
0.0
 20
0.0
 30
0.0
  3
*D17
  1

  0
LINE
  5
B8B
330
AF2
100
AcDbEntity
  8
Dimensions
  6
Continuous
 62
    47
370
    25
100
AcDbLine
 10
14.73096969931564
 20
12.58683747931778
 30
0.0
 11
18.94815622934069
 21
12.58683747931778
 31
0.0
  0
LINE
  5
B8C
330
AF2
100
AcDbEntity
  8
Dimensions
  6
Continuous
 62
    47
370
    25
100
AcDbLine
 10
14.73096969931564
 20
6.158837479317781
 30
0.0
 11
18.94815622934068
 21
6.15883747931778
 31
0.0
  0
LINE
  5
B8D
330
AF2
100
AcDbEntity
  8
Dimensions
  6
Continuous
 62
    47
370
    25
100
AcDbLine
 10
18.82315622934068
 20
12.48841228469669
 30
0.0
 11
18.82315622934068
 21
9.651470213696777
 31
0.0
  0
LINE
  5
B8E
330
AF2
100
AcDbEntity
  8
Dimensions
  6
Continuous
 62
    47
370
    25
100
AcDbLine
 10
18.82315622934068
 20
6.257262673938866
 30
0.0
 11
18.82315622934068
 21
9.206989396849907
 31
0.0
  0
SOLID
  5
B8F
330
AF2
100
AcDbEntity
  8
Dimensions
  6
Continuous
 62
    47
100
AcDbTrace
 10
18.80675203023717
 20
12.48841228469669
 30
0.0
 11
18.8395604284442
 21
12.48841228469669
 31
0.0
 12
18.82315622934068
 22
12.58683747931778
 32
0.0
 13
18.82315622934068
 23
12.58683747931778
 33
0.0
  0
SOLID
  5
B90
330
AF2
100
AcDbEntity
  8
Dimensions
  6
Continuous
 62
    47
100
AcDbTrace
 10
18.80675203023717
 20
6.257262673938866
 30
0.0
 11
18.8395604284442
 21
6.257262673938866
 31
0.0
 12
18.82315622934068
 22
6.15883747931778
 32
0.0
 13
18.82315622934068
 23
6.15883747931778
 33
0.0
  0
MTEXT
  5
B91
330
AF2
100
AcDbEntity
  8
Dimensions
  6
Continuous
 62
    47
370
    25
100
AcDbMText
 10
18.82315622934068
 20
9.429229805273344
 30
0.0
 40
0.1200000047683716
 41
0.0
 71
     5
 72
     1
  1
\A1;6.428
  7
TextStyle8
 11
0.0000000000000001
 21
1.0
 31
0.0
 73
     1
 44
1.0
  0
POINT
  5
B92
330
AF2
100
AcDbEntity
  8
Defpoints
  6
Continuous
 62
     0
100
AcDbPoint
 10
14.66846969931564
 20
12.58683747931778
 30
0.0
  0
POINT
  5
B93
330
AF2
100
AcDbEntity
  8
Defpoints
  6
Continuous
 62
     0
100
AcDbPoint
 10
14.66846969931564
 20
6.158837479317781
 30
0.0
  0
POINT
  5
B94
330
AF2
100
AcDbEntity
  8
Defpoints
  6
Continuous
 62
     0
100
AcDbPoint
 10
18.82315622934068
 20
6.15883747931778
 30
0.0
  0
ENDBLK
  5
AFE
330
AF2
100
AcDbEntity
  8
0
100
AcDbBlockEnd
  0
BLOCK
  5
BA1
330
B96
100
AcDbEntity
  8
0
100
AcDbBlockBegin
  2
*D18
 70
     1
 10
0.0
 20
0.0
 30
0.0
  3
*D18
  1

  0
LINE
  5
C35
330
B96
100
AcDbEntity
  8
Dimensions
  6
Continuous
 62
    47
370
    25
100
AcDbLine
 10
14.45896969931563
 20
6.496837479317778
 30
0.0
 11
15.08350946862826
 21
6.496837479317778
 31
0.0
  0
LINE
  5
C36
330
B96
100
AcDbEntity
  8
Dimensions
  6
Continuous
 62
    47
370
    25
100
AcDbLine
 10
14.73096969931564
 20
6.158837479317781
 30
0.0
 11
15.08350946862826
 21
6.158837479317781
 31
0.0
  0
LINE
  5
C37
330
B96
100
AcDbEntity
  8
Dimensions
  6
Continuous
 62
    47
370
    25
100
AcDbLine
 10
14.95850946862826
 20
6.398412284696692
 30
0.0
 11
14.95850946862826
 21
6.257262673938867
 31
0.0
  0
LINE
  5
C38
330
B96
100
AcDbEntity
  8
Dimensions
  6
Continuous
 62
    47
370
    25
100
AcDbLine
 10
14.95850946862826
 20
6.158837479317781
 30
0.0
 11
14.95850946862826
 21
5.602018365666547
 31
0.0
  0
SOLID
  5
C39
330
B96
100
AcDbEntity
  8
Dimensions
  6
Continuous
 62
    47
100
AcDbTrace
 10
14.94210526952474
 20
6.398412284696692
 30
0.0
 11
14.97491366773177
 21
6.398412284696692
 31
0.0
 12
14.95850946862826
 22
6.496837479317778
 32
0.0
 13
14.95850946862826
 23
6.496837479317778
 33
0.0
  0
SOLID
  5
C3A
330
B96
100
AcDbEntity
  8
Dimensions
  6
Continuous
 62
    47
100
AcDbTrace
 10
14.94210526952474
 20
6.257262673938867
 30
0.0
 11
14.97491366773177
 21
6.257262673938867
 31
0.0
 12
14.95850946862826
 22
6.158837479317781
 32
0.0
 13
14.95850946862826
 23
6.158837479317781
 33
0.0
  0
MTEXT
  5
C3B
330
B96
100
AcDbEntity
  8
Dimensions
  6
Continuous
 62
    47
370
    25
100
AcDbMText
 10
14.95850946862825
 20
5.380085733516502
 30
0.0
 40
0.1200000047683716
 41
0.0
 71
     5
 72
     1
  1
\A1;0.338
  7
TextStyle8
 11
0.0000000000000001
 21
1.0
 31
0.0
 73
     1
 44
1.0
  0
POINT
  5
C3C
330
B96
100
AcDbEntity
  8
Defpoints
  6
Continuous
 62
     0
100
AcDbPoint
 10
14.39646969931564
 20
6.496837479317778
 30
0.0
  0
POINT
  5
C3D
330
B96
100
AcDbEntity
  8
Defpoints
  6
Continuous
 62
     0
100
AcDbPoint
 10
14.66846969931564
 20
6.158837479317781
 30
0.0
  0
POINT
  5
C3E
330
B96
100
AcDbEntity
  8
Defpoints
  6
Continuous
 62
     0
100
AcDbPoint
 10
14.95850946862826
 20
6.158837479317781
 30
0.0
  0
ENDBLK
  5
BA2
330
B96
100
AcDbEntity
  8
0
100
AcDbBlockEnd
  0
BLOCK
  5
C4B
330
C40
100
AcDbEntity
  8
0
100
AcDbBlockBegin
  2
*D19
 70
     1
 10
0.0
 20
0.0
 30
0.0
  3
*D19
  1

  0
LINE
  5
CD9
330
C40
100
AcDbEntity
  8
Dimensions
  6
Continuous
 62
    47
370
    25
100
AcDbLine
 10
14.23096969931564
 20
7.158837479317782
 30
0.0
 11
15.50766024755962
 21
7.158837479317782
 31
0.0
  0
LINE
  5
CDA
330
C40
100
AcDbEntity
  8
Dimensions
  6
Continuous
 62
    47
370
    25
100
AcDbLine
 10
14.73096969931564
 20
6.158837479317781
 30
0.0
 11
15.50766024755962
 21
6.158837479317781
 31
0.0
  0
LINE
  5
CDB
330
C40
100
AcDbEntity
  8
Dimensions
  6
Continuous
 62
    47
370
    25
100
AcDbLine
 10
15.38266024755962
 20
7.060412284696695
 30
0.0
 11
15.38266024755962
 21
6.926939404702075
 31
0.0
  0
LINE
  5
CDC
330
C40
100
AcDbEntity
  8
Dimensions
  6
Continuous
 62
    47
370
    25
100
AcDbLine
 10
15.38266024755962
 20
6.257262673938867
 30
0.0
 11
15.38266024755962
 21
6.494307974380587
 31
0.0
  0
SOLID
  5
CDD
330
C40
100
AcDbEntity
  8
Dimensions
  6
Continuous
 62
    47
100
AcDbTrace
 10
15.36625604845611
 20
7.060412284696695
 30
0.0
 11
15.39906444666313
 21
7.060412284696695
 31
0.0
 12
15.38266024755962
 22
7.158837479317782
 32
0.0
 13
15.38266024755962
 23
7.158837479317782
 33
0.0
  0
SOLID
  5
CDE
330
C40
100
AcDbEntity
  8
Dimensions
  6
Continuous
 62
    47
100
AcDbTrace
 10
15.36625604845611
 20
6.257262673938867
 30
0.0
 11
15.39906444666313
 21
6.257262673938867
 31
0.0
 12
15.38266024755962
 22
6.158837479317781
 32
0.0
 13
15.38266024755962
 23
6.158837479317781
 33
0.0
  0
MTEXT
  5
CDF
330
C40
100
AcDbEntity
  8
Dimensions
  6
Continuous
 62
    47
370
    25
100
AcDbMText
 10
15.38266024755962
 20
6.710623689541334
 30
0.0
 40
0.1200000047683716
 41
0.0
 71
     5
 72
     1
  1
\A1;1.000
  7
TextStyle8
 11
0.0000000000000001
 21
1.0
 31
0.0
 73
     1
 44
1.0
  0
POINT
  5
CE0
330
C40
100
AcDbEntity
  8
Defpoints
  6
Continuous
 62
     0
100
AcDbPoint
 10
14.16846969931564
 20
7.158837479317782
 30
0.0
  0
POINT
  5
CE1
330
C40
100
AcDbEntity
  8
Defpoints
  6
Continuous
 62
     0
100
AcDbPoint
 10
14.66846969931564
 20
6.158837479317781
 30
0.0
  0
POINT
  5
CE2
330
C40
100
AcDbEntity
  8
Defpoints
  6
Continuous
 62
     0
100
AcDbPoint
 10
15.38266024755962
 20
6.158837479317781
 30
0.0
  0
ENDBLK
  5
C4C
330
C40
100
AcDbEntity
  8
0
100
AcDbBlockEnd
  0
BLOCK
  5
CEF
330
CE4
100
AcDbEntity
  8
0
100
AcDbBlockBegin
  2
*D20
 70
     1
 10
0.0
 20
0.0
 30
0.0
  3
*D20
  1

  0
LINE
  5
D7D
330
CE4
100
AcDbEntity
  8
Dimensions
  6
Continuous
 62
    47
370
    25
100
AcDbLine
 10
14.45896969931563
 20
12.25850218173031
 30
0.0
 11
18.56417230280262
 21
12.25850218173031
 31
0.0
  0
LINE
  5
D7E
330
CE4
100
AcDbEntity
  8
Dimensions
  6
Continuous
 62
    47
370
    25
100
AcDbLine
 10
14.73096969931564
 20
6.158837479317781
 30
0.0
 11
18.56417230280262
 21
6.15883747931778
 31
0.0
  0
LINE
  5
D7F
330
CE4
100
AcDbEntity
  8
Dimensions
  6
Continuous
 62
    47
370
    25
100
AcDbLine
 10
18.43917230280262
 20
12.16007698710922
 30
0.0
 11
18.43917230280262
 21
11.64787879361074
 31
0.0
  0
LINE
  5
D80
330
CE4
100
AcDbEntity
  8
Dimensions
  6
Continuous
 62
    47
370
    25
100
AcDbLine
 10
18.43917230280262
 20
6.257262673938866
 30
0.0
 11
18.43917230280262
 21
11.20401352931065
 31
0.0
  0
SOLID
  5
D81
330
CE4
100
AcDbEntity
  8
Dimensions
  6
Continuous
 62
    47
100
AcDbTrace
 10
18.4227681036991
 20
12.16007698710922
 30
0.0
 11
18.45557650190614
 21
12.16007698710922
 31
0.0
 12
18.43917230280262
 22
12.25850218173031
 32
0.0
 13
18.43917230280262
 23
12.25850218173031
 33
0.0
  0
SOLID
  5
D82
330
CE4
100
AcDbEntity
  8
Dimensions
  6
Continuous
 62
    47
100
AcDbTrace
 10
18.4227681036991
 20
6.257262673938866
 30
0.0
 11
18.45557650190613
 21
6.257262673938866
 31
0.0
 12
18.43917230280262
 22
6.15883747931778
 32
0.0
 13
18.43917230280262
 23
6.15883747931778
 33
0.0
  0
MTEXT
  5
D83
330
CE4
100
AcDbEntity
  8
Dimensions
  6
Continuous
 62
    47
370
    25
100
AcDbMText
 10
18.43917230280262
 20
11.4259461614607
 30
0.0
 40
0.1200000047683716
 41
0.0
 71
     5
 72
     1
  1
\A1;6.100
  7
TextStyle8
 11
0.0000000000000001
 21
1.0
 31
0.0
 73
     1
 44
1.0
  0
POINT
  5
D84
330
CE4
100
AcDbEntity
  8
Defpoints
  6
Continuous
 62
     0
100
AcDbPoint
 10
14.39646969931564
 20
12.25850218173031
 30
0.0
  0
POINT
  5
D85
330
CE4
100
AcDbEntity
  8
Defpoints
  6
Continuous
 62
     0
100
AcDbPoint
 10
14.66846969931564
 20
6.158837479317781
 30
0.0
  0
POINT
  5
D86
330
CE4
100
AcDbEntity
  8
Defpoints
  6
Continuous
 62
     0
100
AcDbPoint
 10
18.43917230280262
 20
6.15883747931778
 30
0.0
  0
ENDBLK
  5
CF0
330
CE4
100
AcDbEntity
  8
0
100
AcDbBlockEnd
  0
BLOCK
  5
D93
330
D88
100
AcDbEntity
  8
0
100
AcDbBlockBegin
  2
*D21
 70
     1
 10
0.0
 20
0.0
 30
0.0
  3
*D21
  1

  0
LINE
  5
E21
330
D88
100
AcDbEntity
  8
Dimensions
  6
Continuous
 62
    47
370
    25
100
AcDbLine
 10
14.83096969931563
 20
10.42883747931778
 30
0.0
 11
17.79032294557028
 21
10.42883747931778
 31
0.0
  0
LINE
  5
E22
330
D88
100
AcDbEntity
  8
Dimensions
  6
Continuous
 62
    47
370
    25
100
AcDbLine
 10
14.73096969931564
 20
6.158837479317781
 30
0.0
 11
17.79032294557028
 21
6.158837479317781
 31
0.0
  0
LINE
  5
E23
330
D88
100
AcDbEntity
  8
Dimensions
  6
Continuous
 62
    47
370
    25
100
AcDbLine
 10
17.66532294557029
 20
10.33041228469669
 30
0.0
 11
17.66532294557029
 21
10.04315461777223
 31
0.0
  0
LINE
  5
E24
330
D88
100
AcDbEntity
  8
Dimensions
  6
Continuous
 62
    47
370
    25
100
AcDbLine
 10
17.66532294557028
 20
6.257262673938867
 30
0.0
 11
17.66532294557029
 21
9.595365205986464
 31
0.0
  0
SOLID
  5
E25
330
D88
100
AcDbEntity
  8
Dimensions
  6
Continuous
 62
    47
100
AcDbTrace
 10
17.64891874646677
 20
10.33041228469669
 30
0.0
 11
17.6817271446738
 21
10.33041228469669
 31
0.0
 12
17.66532294557029
 22
10.42883747931778
 32
0.0
 13
17.66532294557029
 23
10.42883747931778
 33
0.0
  0
SOLID
  5
E26
330
D88
100
AcDbEntity
  8
Dimensions
  6
Continuous
 62
    47
100
AcDbTrace
 10
17.64891874646677
 20
6.257262673938867
 30
0.0
 11
17.6817271446738
 21
6.257262673938867
 31
0.0
 12
17.66532294557028
 22
6.158837479317781
 32
0.0
 13
17.66532294557028
 23
6.158837479317781
 33
0.0
  0
MTEXT
  5
E27
330
D88
100
AcDbEntity
  8
Dimensions
  6
Continuous
 62
    47
370
    25
100
AcDbMText
 10
17.66532294557028
 20
9.819259911879353
 30
0.0
 40
0.1200000047683716
 41
0.0
 71
     5
 72
     1
  1
\A1;4.270
  7
TextStyle8
 11
0.0000000000000001
 21
1.0
 31
0.0
 73
     1
 44
1.0
  0
POINT
  5
E28
330
D88
100
AcDbEntity
  8
Defpoints
  6
Continuous
 62
     0
100
AcDbPoint
 10
14.76846969931563
 20
10.42883747931778
 30
0.0
  0
POINT
  5
E29
330
D88
100
AcDbEntity
  8
Defpoints
  6
Continuous
 62
     0
100
AcDbPoint
 10
14.66846969931564
 20
6.158837479317781
 30
0.0
  0
POINT
  5
E2A
330
D88
100
AcDbEntity
  8
Defpoints
  6
Continuous
 62
     0
100
AcDbPoint
 10
17.66532294557028
 20
6.158837479317781
 30
0.0
  0
ENDBLK
  5
D94
330
D88
100
AcDbEntity
  8
0
100
AcDbBlockEnd
  0
BLOCK
  5
E37
330
E2C
100
AcDbEntity
  8
0
100
AcDbBlockBegin
  2
*D22
 70
     1
 10
0.0
 20
0.0
 30
0.0
  3
*D22
  1

  0
LINE
  5
EC5
330
E2C
100
AcDbEntity
  8
Dimensions
  6
Continuous
 62
    47
370
    25
100
AcDbLine
 10
14.83096969931564
 20
9.428837479317783
 30
0.0
 11
17.46550532833724
 21
9.428837479317783
 31
0.0
  0
LINE
  5
EC6
330
E2C
100
AcDbEntity
  8
Dimensions
  6
Continuous
 62
    47
370
    25
100
AcDbLine
 10
14.73096969931564
 20
6.158837479317781
 30
0.0
 11
17.46550532833724
 21
6.158837479317781
 31
0.0
  0
LINE
  5
EC7
330
E2C
100
AcDbEntity
  8
Dimensions
  6
Continuous
 62
    47
370
    25
100
AcDbLine
 10
17.34050532833724
 20
9.330412284696697
 30
0.0
 11
17.34050532833724
 21
9.066393427300727
 31
0.0
  0
LINE
  5
EC8
330
E2C
100
AcDbEntity
  8
Dimensions
  6
Continuous
 62
    47
370
    25
100
AcDbLine
 10
17.34050532833724
 20
6.257262673938867
 30
0.0
 11
17.34050532833724
 21
8.62322065961575
 31
0.0
  0
SOLID
  5
EC9
330
E2C
100
AcDbEntity
  8
Dimensions
  6
Continuous
 62
    47
100
AcDbTrace
 10
17.32410112923372
 20
9.330412284696697
 30
0.0
 11
17.35690952744076
 21
9.330412284696697
 31
0.0
 12
17.34050532833724
 22
9.428837479317783
 32
0.0
 13
17.34050532833724
 23
9.428837479317783
 33
0.0
  0
SOLID
  5
ECA
330
E2C
100
AcDbEntity
  8
Dimensions
  6
Continuous
 62
    47
100
AcDbTrace
 10
17.32410112923372
 20
6.257262673938867
 30
0.0
 11
17.35690952744075
 21
6.257262673938867
 31
0.0
 12
17.34050532833724
 22
6.158837479317781
 32
0.0
 13
17.34050532833724
 23
6.158837479317781
 33
0.0
  0
MTEXT
  5
ECB
330
E2C
100
AcDbEntity
  8
Dimensions
  6
Continuous
 62
    47
370
    25
100
AcDbMText
 10
17.34050532833724
 20
8.84480704345824
 30
0.0
 40
0.1200000047683716
 41
0.0
 71
     5
 72
     1
  1
\A1;3.270
  7
TextStyle8
 11
0.0000000000000001
 21
1.0
 31
0.0
 73
     1
 44
1.0
  0
POINT
  5
ECC
330
E2C
100
AcDbEntity
  8
Defpoints
  6
Continuous
 62
     0
100
AcDbPoint
 10
14.76846969931564
 20
9.428837479317783
 30
0.0
  0
POINT
  5
ECD
330
E2C
100
AcDbEntity
  8
Defpoints
  6
Continuous
 62
     0
100
AcDbPoint
 10
14.66846969931564
 20
6.158837479317781
 30
0.0
  0
POINT
  5
ECE
330
E2C
100
AcDbEntity
  8
Defpoints
  6
Continuous
 62
     0
100
AcDbPoint
 10
17.34050532833724
 20
6.158837479317781
 30
0.0
  0
ENDBLK
  5
E38
330
E2C
100
AcDbEntity
  8
0
100
AcDbBlockEnd
  0
BLOCK
  5
EDB
330
ED0
100
AcDbEntity
  8
0
100
AcDbBlockBegin
  2
*D23
 70
     1
 10
0.0
 20
0.0
 30
0.0
  3
*D23
  1

  0
LINE
  5
F69
330
ED0
100
AcDbEntity
  8
Dimensions
  6
Continuous
 62
    47
370
    25
100
AcDbLine
 10
14.83096969931564
 20
8.728837479317775
 30
0.0
 11
16.95121076771826
 21
8.728837479317775
 31
0.0
  0
LINE
  5
F6A
330
ED0
100
AcDbEntity
  8
Dimensions
  6
Continuous
 62
    47
370
    25
100
AcDbLine
 10
14.73096969931564
 20
6.158837479317781
 30
0.0
 11
16.95121076771825
 21
6.158837479317781
 31
0.0
  0
LINE
  5
F6B
330
ED0
100
AcDbEntity
  8
Dimensions
  6
Continuous
 62
    47
370
    25
100
AcDbLine
 10
16.82621076771826
 20
8.630412284696689
 30
0.0
 11
16.82621076771826
 21
8.092940831768116
 31
0.0
  0
LINE
  5
F6C
330
ED0
100
AcDbEntity
  8
Dimensions
  6
Continuous
 62
    47
370
    25
100
AcDbLine
 10
16.82621076771825
 20
6.257262673938867
 30
0.0
 11
16.82621076771825
 21
7.647767518306127
 31
0.0
  0
SOLID
  5
F6D
330
ED0
100
AcDbEntity
  8
Dimensions
  6
Continuous
 62
    47
100
AcDbTrace
 10
16.80980656861474
 20
8.630412284696689
 30
0.0
 11
16.84261496682177
 21
8.630412284696689
 31
0.0
 12
16.82621076771826
 22
8.728837479317775
 32
0.0
 13
16.82621076771826
 23
8.728837479317775
 33
0.0
  0
SOLID
  5
F6E
330
ED0
100
AcDbEntity
  8
Dimensions
  6
Continuous
 62
    47
100
AcDbTrace
 10
16.80980656861474
 20
6.257262673938867
 30
0.0
 11
16.84261496682177
 21
6.257262673938867
 31
0.0
 12
16.82621076771825
 22
6.158837479317781
 32
0.0
 13
16.82621076771825
 23
6.158837479317781
 33
0.0
  0
MTEXT
  5
F6F
330
ED0
100
AcDbEntity
  8
Dimensions
  6
Continuous
 62
    47
370
    25
100
AcDbMText
 10
16.82621076771825
 20
7.870354175037125
 30
0.0
 40
0.1200000047683716
 41
0.0
 71
     5
 72
     1
  1
\A1;2.570
  7
TextStyle8
 11
0.0000000000000001
 21
1.0
 31
0.0
 73
     1
 44
1.0
  0
POINT
  5
F70
330
ED0
100
AcDbEntity
  8
Defpoints
  6
Continuous
 62
     0
100
AcDbPoint
 10
14.76846969931564
 20
8.728837479317775
 30
0.0
  0
POINT
  5
F71
330
ED0
100
AcDbEntity
  8
Defpoints
  6
Continuous
 62
     0
100
AcDbPoint
 10
14.66846969931564
 20
6.158837479317781
 30
0.0
  0
POINT
  5
F72
330
ED0
100
AcDbEntity
  8
Defpoints
  6
Continuous
 62
     0
100
AcDbPoint
 10
16.82621076771825
 20
6.158837479317781
 30
0.0
  0
ENDBLK
  5
EDC
330
ED0
100
AcDbEntity
  8
0
100
AcDbBlockEnd
  0
BLOCK
  5
F7F
330
F74
100
AcDbEntity
  8
0
100
AcDbBlockBegin
  2
*D24
 70
     1
 10
0.0
 20
0.0
 30
0.0
  3
*D24
  1

  0
LINE
  5
100D
330
F74
100
AcDbEntity
  8
Dimensions
  6
Continuous
 62
    47
370
    25
100
AcDbLine
 10
5.455969699315642
 20
6.158837479317781
 30
0.0
 11
1.692682297740841
 21
6.158837479317782
 31
0.0
  0
LINE
  5
100E
330
F74
100
AcDbEntity
  8
Dimensions
  6
Continuous
 62
    47
370
    25
100
AcDbLine
 10
6.28096969931564
 20
10.98883747931778
 30
0.0
 11
1.692682297740842
 21
10.98883747931778
 31
0.0
  0
LINE
  5
100F
330
F74
100
AcDbEntity
  8
Dimensions
  6
Continuous
 62
    47
370
    25
100
AcDbLine
 10
1.817682297740841
 20
6.257262673938868
 30
0.0
 11
1.817682297740842
 21
8.565227643694031
 31
0.0
  0
LINE
  5
1010
330
F74
100
AcDbEntity
  8
Dimensions
  6
Continuous
 62
    47
370
    25
100
AcDbLine
 10
1.817682297740842
 20
10.89041228469669
 30
0.0
 11
1.817682297740842
 21
9.013017055479805
 31
0.0
  0
SOLID
  5
1011
330
F74
100
AcDbEntity
  8
Dimensions
  6
Continuous
 62
    47
100
AcDbTrace
 10
1.801278098637327
 20
6.257262673938868
 30
0.0
 11
1.834086496844355
 21
6.257262673938868
 31
0.0
 12
1.817682297740841
 22
6.158837479317782
 32
0.0
 13
1.817682297740841
 23
6.158837479317782
 33
0.0
  0
SOLID
  5
1012
330
F74
100
AcDbEntity
  8
Dimensions
  6
Continuous
 62
    47
100
AcDbTrace
 10
1.801278098637328
 20
10.89041228469669
 30
0.0
 11
1.834086496844357
 21
10.89041228469669
 31
0.0
 12
1.817682297740842
 22
10.98883747931778
 32
0.0
 13
1.817682297740842
 23
10.98883747931778
 33
0.0
  0
MTEXT
  5
1013
330
F74
100
AcDbEntity
  8
Dimensions
  6
Continuous
 62
    47
370
    25
100
AcDbMText
 10
1.81768229774084
 20
8.789122349586918
 30
0.0
 40
0.1200000047683716
 41
0.0
 71
     5
 72
     1
  1
\A1;4.830
  7
TextStyle8
 11
0.0000000000000001
 21
1.0
 31
0.0
 73
     1
 44
1.0
  0
POINT
  5
1014
330
F74
100
AcDbEntity
  8
Defpoints
  6
Continuous
 62
     0
100
AcDbPoint
 10
5.518469699315642
 20
6.158837479317781
 30
0.0
  0
POINT
  5
1015
330
F74
100
AcDbEntity
  8
Defpoints
  6
Continuous
 62
     0
100
AcDbPoint
 10
6.34346969931564
 20
10.98883747931778
 30
0.0
  0
POINT
  5
1016
330
F74
100
AcDbEntity
  8
Defpoints
  6
Continuous
 62
     0
100
AcDbPoint
 10
1.817682297740842
 20
10.98883747931778
 30
0.0
  0
ENDBLK
  5
F80
330
F74
100
AcDbEntity
  8
0
100
AcDbBlockEnd
  0
BLOCK
  5
1023
330
1018
100
AcDbEntity
  8
0
100
AcDbBlockBegin
  2
*D25
 70
     1
 10
0.0
 20
0.0
 30
0.0
  3
*D25
  1

  0
LINE
  5
10B1
330
1018
100
AcDbEntity
  8
Dimensions
  6
Continuous
 62
    47
370
    25
100
AcDbLine
 10
5.955969699315641
 20
8.248837479317776
 30
0.0
 11
2.559459029706019
 21
8.248837479317778
 31
0.0
  0
LINE
  5
10B2
330
1018
100
AcDbEntity
  8
Dimensions
  6
Continuous
 62
    47
370
    25
100
AcDbLine
 10
5.455969699315642
 20
6.158837479317781
 30
0.0
 11
2.559459029706018
 21
6.158837479317781
 31
0.0
  0
LINE
  5
10B3
330
1018
100
AcDbEntity
  8
Dimensions
  6
Continuous
 62
    47
370
    25
100
AcDbLine
 10
2.684459029706019
 20
8.150412284696692
 30
0.0
 11
2.684459029706019
 21
7.583932009669622
 31
0.0
  0
LINE
  5
10B4
330
1018
100
AcDbEntity
  8
Dimensions
  6
Continuous
 62
    47
370
    25
100
AcDbLine
 10
2.684459029706018
 20
6.257262673938867
 30
0.0
 11
2.684459029706019
 21
7.138758696207634
 31
0.0
  0
SOLID
  5
10B5
330
1018
100
AcDbEntity
  8
Dimensions
  6
Continuous
 62
    47
100
AcDbTrace
 10
2.668054830602505
 20
8.150412284696692
 30
0.0
 11
2.700863228809533
 21
8.150412284696692
 31
0.0
 12
2.684459029706019
 22
8.248837479317778
 32
0.0
 13
2.684459029706019
 23
8.248837479317778
 33
0.0
  0
SOLID
  5
10B6
330
1018
100
AcDbEntity
  8
Dimensions
  6
Continuous
 62
    47
100
AcDbTrace
 10
2.668054830602504
 20
6.257262673938867
 30
0.0
 11
2.700863228809533
 21
6.257262673938867
 31
0.0
 12
2.684459029706018
 22
6.158837479317781
 32
0.0
 13
2.684459029706018
 23
6.158837479317781
 33
0.0
  0
MTEXT
  5
10B7
330
1018
100
AcDbEntity
  8
Dimensions
  6
Continuous
 62
    47
370
    25
100
AcDbMText
 10
2.684459029706018
 20
7.361345352938629
 30
0.0
 40
0.1200000047683716
 41
0.0
 71
     5
 72
     1
  1
\A1;2.090
  7
TextStyle8
 11
0.0000000000000001
 21
1.0
 31
0.0
 73
     1
 44
1.0
  0
POINT
  5
10B8
330
1018
100
AcDbEntity
  8
Defpoints
  6
Continuous
 62
     0
100
AcDbPoint
 10
6.018469699315641
 20
8.248837479317776
 30
0.0
  0
POINT
  5
10B9
330
1018
100
AcDbEntity
  8
Defpoints
  6
Continuous
 62
     0
100
AcDbPoint
 10
5.518469699315642
 20
6.158837479317781
 30
0.0
  0
POINT
  5
10BA
330
1018
100
AcDbEntity
  8
Defpoints
  6
Continuous
 62
     0
100
AcDbPoint
 10
2.684459029706018
 20
6.158837479317781
 30
0.0
  0
ENDBLK
  5
1024
330
1018
100
AcDbEntity
  8
0
100
AcDbBlockEnd
  0
BLOCK
  5
10C7
330
10BC
100
AcDbEntity
  8
0
100
AcDbBlockBegin
  2
*D26
 70
     1
 10
0.0
 20
0.0
 30
0.0
  3
*D26
  1

  0
LINE
  5
1155
330
10BC
100
AcDbEntity
  8
Dimensions
  6
Continuous
 62
    47
370
    25
100
AcDbLine
 10
5.405969699315641
 20
7.218837479317773
 30
0.0
 11
3.395230925776727
 21
7.218837479317773
 31
0.0
  0
LINE
  5
1156
330
10BC
100
AcDbEntity
  8
Dimensions
  6
Continuous
 62
    47
370
    25
100
AcDbLine
 10
5.455969699315642
 20
6.158837479317781
 30
0.0
 11
3.395230925776726
 21
6.158837479317781
 31
0.0
  0
LINE
  5
1157
330
10BC
100
AcDbEntity
  8
Dimensions
  6
Continuous
 62
    47
370
    25
100
AcDbLine
 10
3.520230925776727
 20
7.120412284696687
 30
0.0
 11
3.520230925776726
 21
6.950832142741585
 31
0.0
  0
LINE
  5
1158
330
10BC
100
AcDbEntity
  8
Dimensions
  6
Continuous
 62
    47
370
    25
100
AcDbLine
 10
3.520230925776726
 20
6.257262673938867
 30
0.0
 11
3.520230925776726
 21
6.518200712420098
 31
0.0
  0
SOLID
  5
1159
330
10BC
100
AcDbEntity
  8
Dimensions
  6
Continuous
 62
    47
100
AcDbTrace
 10
3.503826726673212
 20
7.120412284696687
 30
0.0
 11
3.536635124880241
 21
7.120412284696687
 31
0.0
 12
3.520230925776727
 22
7.218837479317773
 32
0.0
 13
3.520230925776727
 23
7.218837479317773
 33
0.0
  0
SOLID
  5
115A
330
10BC
100
AcDbEntity
  8
Dimensions
  6
Continuous
 62
    47
100
AcDbTrace
 10
3.503826726673212
 20
6.257262673938867
 30
0.0
 11
3.53663512488024
 21
6.257262673938867
 31
0.0
 12
3.520230925776726
 22
6.158837479317781
 32
0.0
 13
3.520230925776726
 23
6.158837479317781
 33
0.0
  0
MTEXT
  5
115B
330
10BC
100
AcDbEntity
  8
Dimensions
  6
Continuous
 62
    47
370
    25
100
AcDbMText
 10
3.520230925776725
 20
6.734516427580842
 30
0.0
 40
0.1200000047683716
 41
0.0
 71
     5
 72
     1
  1
\A1;1.060
  7
TextStyle8
 11
0.0000000000000001
 21
1.0
 31
0.0
 73
     1
 44
1.0
  0
POINT
  5
115C
330
10BC
100
AcDbEntity
  8
Defpoints
  6
Continuous
 62
     0
100
AcDbPoint
 10
5.468469699315641
 20
7.218837479317773
 30
0.0
  0
POINT
  5
115D
330
10BC
100
AcDbEntity
  8
Defpoints
  6
Continuous
 62
     0
100
AcDbPoint
 10
5.518469699315642
 20
6.158837479317781
 30
0.0
  0
POINT
  5
115E
330
10BC
100
AcDbEntity
  8
Defpoints
  6
Continuous
 62
     0
100
AcDbPoint
 10
3.520230925776726
 20
6.158837479317781
 30
0.0
  0
ENDBLK
  5
10C8
330
10BC
100
AcDbEntity
  8
0
100
AcDbBlockEnd
  0
BLOCK
  5
116B
330
1160
100
AcDbEntity
  8
0
100
AcDbBlockBegin
  2
*D27
 70
     1
 10
0.0
 20
0.0
 30
0.0
  3
*D27
  1

  0
LINE
  5
11F9
330
1160
100
AcDbEntity
  8
Dimensions
  6
Continuous
 62
    47
370
    25
100
AcDbLine
 10
14.83096969931563
 20
8.248837479317776
 30
0.0
 11
16.54518874617695
 21
8.248837479317776
 31
0.0
  0
LINE
  5
11FA
330
1160
100
AcDbEntity
  8
Dimensions
  6
Continuous
 62
    47
370
    25
100
AcDbLine
 10
14.73096969931564
 20
6.158837479317781
 30
0.0
 11
16.54518874617695
 21
6.158837479317781
 31
0.0
  0
LINE
  5
11FB
330
1160
100
AcDbEntity
  8
Dimensions
  6
Continuous
 62
    47
370
    25
100
AcDbLine
 10
16.42018874617695
 20
8.15041228469669
 30
0.0
 11
16.42018874617695
 21
7.846128317440477
 31
0.0
  0
LINE
  5
11FC
330
1160
100
AcDbEntity
  8
Dimensions
  6
Continuous
 62
    47
370
    25
100
AcDbLine
 10
16.42018874617695
 20
6.257262673938867
 30
0.0
 11
16.42018874617695
 21
7.299081057487544
 31
0.0
  0
SOLID
  5
11FD
330
1160
100
AcDbEntity
  8
Dimensions
  6
Continuous
 62
    47
100
AcDbTrace
 10
16.40378454707343
 20
8.15041228469669
 30
0.0
 11
16.43659294528046
 21
8.15041228469669
 31
0.0
 12
16.42018874617695
 22
8.248837479317776
 32
0.0
 13
16.42018874617695
 23
8.248837479317776
 33
0.0
  0
SOLID
  5
11FE
330
1160
100
AcDbEntity
  8
Dimensions
  6
Continuous
 62
    47
100
AcDbTrace
 10
16.40378454707343
 20
6.257262673938867
 30
0.0
 11
16.43659294528046
 21
6.257262673938867
 31
0.0
 12
16.42018874617695
 22
6.158837479317781
 32
0.0
 13
16.42018874617695
 23
6.158837479317781
 33
0.0
  0
MTEXT
  5
11FF
330
1160
100
AcDbEntity
  8
Dimensions
  6
Continuous
 62
    47
370
    25
100
AcDbMText
 10
16.42018874617695
 20
7.572604687464013
 30
0.0
 40
0.1200000047683716
 41
0.0
 71
     5
 72
     1
  1
\A1;(2.090)
  7
TextStyle8
 11
0.0000000000000001
 21
1.0
 31
0.0
 73
     1
 44
1.0
  0
POINT
  5
1200
330
1160
100
AcDbEntity
  8
Defpoints
  6
Continuous
 62
     0
100
AcDbPoint
 10
14.76846969931563
 20
8.248837479317776
 30
0.0
  0
POINT
  5
1201
330
1160
100
AcDbEntity
  8
Defpoints
  6
Continuous
 62
     0
100
AcDbPoint
 10
14.66846969931564
 20
6.158837479317781
 30
0.0
  0
POINT
  5
1202
330
1160
100
AcDbEntity
  8
Defpoints
  6
Continuous
 62
     0
100
AcDbPoint
 10
16.42018874617695
 20
6.158837479317781
 30
0.0
  0
ENDBLK
  5
116C
330
1160
100
AcDbEntity
  8
0
100
AcDbBlockEnd
  0
BLOCK
  5
120F
330
1204
100
AcDbEntity
  8
0
100
AcDbBlockBegin
  2
*D28
 70
     1
 10
0.0
 20
0.0
 30
0.0
  3
*D28
  1

  0
LINE
  5
129D
330
1204
100
AcDbEntity
  8
Dimensions
  6
Continuous
 62
    47
370
    25
100
AcDbLine
 10
13.28596969931564
 20
8.188837479317777
 30
0.0
 11
15.99915967352834
 21
8.188837479317777
 31
0.0
  0
LINE
  5
129E
330
1204
100
AcDbEntity
  8
Dimensions
  6
Continuous
 62
    47
370
    25
100
AcDbLine
 10
14.73096969931564
 20
6.158837479317781
 30
0.0
 11
15.99915967352834
 21
6.158837479317781
 31
0.0
  0
LINE
  5
129F
330
1204
100
AcDbEntity
  8
Dimensions
  6
Continuous
 62
    47
370
    25
100
AcDbLine
 10
15.87415967352835
 20
8.090412284696691
 30
0.0
 11
15.87415967352835
 21
7.501506539956417
 31
0.0
  0
LINE
  5
12A0
330
1204
100
AcDbEntity
  8
Dimensions
  6
Continuous
 62
    47
370
    25
100
AcDbLine
 10
15.87415967352835
 20
6.257262673938867
 30
0.0
 11
15.87415967352835
 21
7.056333226494429
 31
0.0
  0
SOLID
  5
12A1
330
1204
100
AcDbEntity
  8
Dimensions
  6
Continuous
 62
    47
100
AcDbTrace
 10
15.85775547442483
 20
8.090412284696691
 30
0.0
 11
15.89056387263186
 21
8.090412284696691
 31
0.0
 12
15.87415967352835
 22
8.188837479317777
 32
0.0
 13
15.87415967352835
 23
8.188837479317777
 33
0.0
  0
SOLID
  5
12A2
330
1204
100
AcDbEntity
  8
Dimensions
  6
Continuous
 62
    47
100
AcDbTrace
 10
15.85775547442483
 20
6.257262673938867
 30
0.0
 11
15.89056387263186
 21
6.257262673938867
 31
0.0
 12
15.87415967352835
 22
6.158837479317781
 32
0.0
 13
15.87415967352835
 23
6.158837479317781
 33
0.0
  0
MTEXT
  5
12A3
330
1204
100
AcDbEntity
  8
Dimensions
  6
Continuous
 62
    47
370
    25
100
AcDbMText
 10
15.87415967352834
 20
7.278919883225426
 30
0.0
 40
0.1200000047683716
 41
0.0
 71
     5
 72
     1
  1
\A1;2.030
  7
TextStyle8
 11
0.0000000000000001
 21
1.0
 31
0.0
 73
     1
 44
1.0
  0
POINT
  5
12A4
330
1204
100
AcDbEntity
  8
Defpoints
  6
Continuous
 62
     0
100
AcDbPoint
 10
13.22346969931564
 20
8.188837479317777
 30
0.0
  0
POINT
  5
12A5
330
1204
100
AcDbEntity
  8
Defpoints
  6
Continuous
 62
     0
100
AcDbPoint
 10
14.66846969931564
 20
6.158837479317781
 30
0.0
  0
POINT
  5
12A6
330
1204
100
AcDbEntity
  8
Defpoints
  6
Continuous
 62
     0
100
AcDbPoint
 10
15.87415967352835
 20
6.158837479317781
 30
0.0
  0
ENDBLK
  5
1210
330
1204
100
AcDbEntity
  8
0
100
AcDbBlockEnd
  0
BLOCK
  5
12B3
330
12A8
100
AcDbEntity
  8
0
100
AcDbBlockBegin
  2
*D29
 70
     1
 10
0.0
 20
0.0
 30
0.0
  3
*D29
  1

  0
LINE
  5
1341
330
12A8
100
AcDbEntity
  8
Dimensions
  6
Continuous
 62
    47
370
    25
100
AcDbLine
 10
14.16846969931564
 20
5.596337479317775
 30
0.0
 11
14.16846969931564
 21
0.741701209648225
 31
0.0
  0
LINE
  5
1342
330
12A8
100
AcDbEntity
  8
Dimensions
  6
Continuous
 62
    47
370
    25
100
AcDbLine
 10
5.518469699315642
 20
6.096337479317782
 30
0.0
 11
5.518469699315642
 21
0.741701209648225
 31
0.0
  0
LINE
  5
1343
330
12A8
100
AcDbEntity
  8
Dimensions
  6
Continuous
 62
    47
370
    25
100
AcDbLine
 10
14.07004450469455
 20
0.8667012096482253
 30
0.0
 11
13.61448824805697
 21
0.8667012096482253
 31
0.0
  0
LINE
  5
1344
330
12A8
100
AcDbEntity
  8
Dimensions
  6
Continuous
 62
    47
370
    25
100
AcDbLine
 10
5.616894893936728
 20
0.8667012096482253
 30
0.0
 11
13.17108464816695
 21
0.8667012096482253
 31
0.0
  0
SOLID
  5
1345
330
12A8
100
AcDbEntity
  8
Dimensions
  6
Continuous
 62
    47
100
AcDbTrace
 10
14.07004450469455
 20
0.8831054087517395
 30
0.0
 11
14.07004450469455
 21
0.850297010544711
 31
0.0
 12
14.16846969931564
 22
0.8667012096482253
 32
0.0
 13
14.16846969931564
 23
0.8667012096482253
 33
0.0
  0
SOLID
  5
1346
330
12A8
100
AcDbEntity
  8
Dimensions
  6
Continuous
 62
    47
100
AcDbTrace
 10
5.616894893936728
 20
0.8831054087517395
 30
0.0
 11
5.616894893936728
 21
0.850297010544711
 31
0.0
 12
5.518469699315642
 22
0.8667012096482253
 32
0.0
 13
5.518469699315642
 23
0.8667012096482253
 33
0.0
  0
MTEXT
  5
1347
330
12A8
100
AcDbEntity
  8
Dimensions
  6
Continuous
 62
    47
370
    25
100
AcDbMText
 10
13.39278644811196
 20
0.8667012096482253
 30
0.0
 40
0.1200000047683716
 41
0.0
 71
     5
 72
     1
  1
\A1;8.650
  7
TextStyle8
 73
     1
 44
1.0
  0
POINT
  5
1348
330
12A8
100
AcDbEntity
  8
Defpoints
  6
Continuous
 62
     0
100
AcDbPoint
 10
14.16846969931564
 20
5.658837479317775
 30
0.0
  0
POINT
  5
1349
330
12A8
100
AcDbEntity
  8
Defpoints
  6
Continuous
 62
     0
100
AcDbPoint
 10
5.518469699315642
 20
6.158837479317782
 30
0.0
  0
POINT
  5
134A
330
12A8
100
AcDbEntity
  8
Defpoints
  6
Continuous
 62
     0
100
AcDbPoint
 10
5.518469699315642
 20
0.8667012096482253
 30
0.0
  0
ENDBLK
  5
12B4
330
12A8
100
AcDbEntity
  8
0
100
AcDbBlockEnd
  0
BLOCK
  5
1357
330
134C
100
AcDbEntity
  8
0
100
AcDbBlockBegin
  2
*D30
 70
     1
 10
0.0
 20
0.0
 30
0.0
  3
*D30
  1

  0
LINE
  5
13E5
330
134C
100
AcDbEntity
  8
Dimensions
  6
Continuous
 62
    47
370
    25
100
AcDbLine
 10
13.53846969931564
 20
5.596337479317775
 30
0.0
 11
13.53846969931564
 21
1.07252758692039
 31
0.0
  0
LINE
  5
13E6
330
134C
100
AcDbEntity
  8
Dimensions
  6
Continuous
 62
    47
370
    25
100
AcDbLine
 10
5.518469699315642
 20
6.096337479317782
 30
0.0
 11
5.518469699315642
 21
1.07252758692039
 31
0.0
  0
LINE
  5
13E7
330
134C
100
AcDbEntity
  8
Dimensions
  6
Continuous
 62
    47
370
    25
100
AcDbLine
 10
13.44004450469455
 20
1.19752758692039
 30
0.0
 11
12.84836400999215
 21
1.19752758692039
 31
0.0
  0
LINE
  5
13E8
330
134C
100
AcDbEntity
  8
Dimensions
  6
Continuous
 62
    47
370
    25
100
AcDbLine
 10
5.616894893936728
 20
1.19752758692039
 30
0.0
 11
12.40496041010214
 21
1.19752758692039
 31
0.0
  0
SOLID
  5
13E9
330
134C
100
AcDbEntity
  8
Dimensions
  6
Continuous
 62
    47
100
AcDbTrace
 10
13.44004450469455
 20
1.213931786023904
 30
0.0
 11
13.44004450469455
 21
1.181123387816876
 31
0.0
 12
13.53846969931564
 22
1.19752758692039
 32
0.0
 13
13.53846969931564
 23
1.19752758692039
 33
0.0
  0
SOLID
  5
13EA
330
134C
100
AcDbEntity
  8
Dimensions
  6
Continuous
 62
    47
100
AcDbTrace
 10
5.616894893936728
 20
1.213931786023904
 30
0.0
 11
5.616894893936728
 21
1.181123387816876
 31
0.0
 12
5.518469699315642
 22
1.19752758692039
 32
0.0
 13
5.518469699315642
 23
1.19752758692039
 33
0.0
  0
MTEXT
  5
13EB
330
134C
100
AcDbEntity
  8
Dimensions
  6
Continuous
 62
    47
370
    25
100
AcDbMText
 10
12.62666221004714
 20
1.19752758692039
 30
0.0
 40
0.1200000047683716
 41
0.0
 71
     5
 72
     1
  1
\A1;8.020
  7
TextStyle8
 73
     1
 44
1.0
  0
POINT
  5
13EC
330
134C
100
AcDbEntity
  8
Defpoints
  6
Continuous
 62
     0
100
AcDbPoint
 10
13.53846969931564
 20
5.658837479317775
 30
0.0
  0
POINT
  5
13ED
330
134C
100
AcDbEntity
  8
Defpoints
  6
Continuous
 62
     0
100
AcDbPoint
 10
5.518469699315642
 20
6.158837479317782
 30
0.0
  0
POINT
  5
13EE
330
134C
100
AcDbEntity
  8
Defpoints
  6
Continuous
 62
     0
100
AcDbPoint
 10
5.518469699315642
 20
1.19752758692039
 30
0.0
  0
ENDBLK
  5
1358
330
134C
100
AcDbEntity
  8
0
100
AcDbBlockEnd
  0
BLOCK
  5
13FB
330
13F0
100
AcDbEntity
  8
0
100
AcDbBlockBegin
  2
*D31
 70
     1
 10
0.0
 20
0.0
 30
0.0
  3
*D31
  1

  0
LINE
  5
1489
330
13F0
100
AcDbEntity
  8
Dimensions
  6
Continuous
 62
    47
370
    25
100
AcDbLine
 10
13.22346969931564
 20
5.596337479317775
 30
0.0
 11
13.22346969931564
 21
1.360609132861084
 31
0.0
  0
LINE
  5
148A
330
13F0
100
AcDbEntity
  8
Dimensions
  6
Continuous
 62
    47
370
    25
100
AcDbLine
 10
5.518469699315642
 20
6.096337479317782
 30
0.0
 11
5.518469699315642
 21
1.360609132861084
 31
0.0
  0
LINE
  5
148B
330
13F0
100
AcDbEntity
  8
Dimensions
  6
Continuous
 62
    47
370
    25
100
AcDbLine
 10
13.12504450469455
 20
1.485609132861083
 30
0.0
 11
12.27384777551189
 21
1.485609132861083
 31
0.0
  0
LINE
  5
148C
330
13F0
100
AcDbEntity
  8
Dimensions
  6
Continuous
 62
    47
370
    25
100
AcDbLine
 10
5.616894893936728
 20
1.485609132861083
 30
0.0
 11
11.83029028748518
 21
1.485609132861083
 31
0.0
  0
SOLID
  5
148D
330
13F0
100
AcDbEntity
  8
Dimensions
  6
Continuous
 62
    47
100
AcDbTrace
 10
13.12504450469455
 20
1.502013331964598
 30
0.0
 11
13.12504450469455
 21
1.469204933757569
 31
0.0
 12
13.22346969931564
 22
1.485609132861083
 32
0.0
 13
13.22346969931564
 23
1.485609132861083
 33
0.0
  0
SOLID
  5
148E
330
13F0
100
AcDbEntity
  8
Dimensions
  6
Continuous
 62
    47
100
AcDbTrace
 10
5.616894893936728
 20
1.502013331964598
 30
0.0
 11
5.616894893936728
 21
1.469204933757569
 31
0.0
 12
5.518469699315642
 22
1.485609132861083
 32
0.0
 13
5.518469699315642
 23
1.485609132861083
 33
0.0
  0
MTEXT
  5
148F
330
13F0
100
AcDbEntity
  8
Dimensions
  6
Continuous
 62
    47
370
    25
100
AcDbMText
 10
12.05206903149853
 20
1.485609132861083
 30
0.0
 40
0.1200000047683716
 41
0.0
 71
     5
 72
     1
  1
\A1;7.705
  7
TextStyle8
 73
     1
 44
1.0
  0
POINT
  5
1490
330
13F0
100
AcDbEntity
  8
Defpoints
  6
Continuous
 62
     0
100
AcDbPoint
 10
13.22346969931564
 20
5.658837479317775
 30
0.0
  0
POINT
  5
1491
330
13F0
100
AcDbEntity
  8
Defpoints
  6
Continuous
 62
     0
100
AcDbPoint
 10
5.518469699315642
 20
6.158837479317782
 30
0.0
  0
POINT
  5
1492
330
13F0
100
AcDbEntity
  8
Defpoints
  6
Continuous
 62
     0
100
AcDbPoint
 10
5.518469699315642
 20
1.485609132861083
 30
0.0
  0
ENDBLK
  5
13FC
330
13F0
100
AcDbEntity
  8
0
100
AcDbBlockEnd
  0
BLOCK
  5
149F
330
1494
100
AcDbEntity
  8
0
100
AcDbBlockBegin
  2
*D32
 70
     1
 10
0.0
 20
0.0
 30
0.0
  3
*D32
  1

  0
LINE
  5
152D
330
1494
100
AcDbEntity
  8
Dimensions
  6
Continuous
 62
    47
370
    25
100
AcDbLine
 10
12.90846969931564
 20
5.596337479317775
 30
0.0
 11
12.90846969931564
 21
1.596829605302028
 31
0.0
  0
LINE
  5
152E
330
1494
100
AcDbEntity
  8
Dimensions
  6
Continuous
 62
    47
370
    25
100
AcDbLine
 10
5.518469699315642
 20
6.096337479317782
 30
0.0
 11
5.518469699315642
 21
1.596829605302028
 31
0.0
  0
LINE
  5
152F
330
1494
100
AcDbEntity
  8
Dimensions
  6
Continuous
 62
    47
370
    25
100
AcDbLine
 10
12.81004450469455
 20
1.721829605302028
 30
0.0
 11
11.64640330091208
 21
1.721829605302028
 31
0.0
  0
LINE
  5
1530
330
1494
100
AcDbEntity
  8
Dimensions
  6
Continuous
 62
    47
370
    25
100
AcDbLine
 10
5.616894893936728
 20
1.721829605302028
 30
0.0
 11
11.20407691797892
 21
1.721829605302028
 31
0.0
  0
SOLID
  5
1531
330
1494
100
AcDbEntity
  8
Dimensions
  6
Continuous
 62
    47
100
AcDbTrace
 10
12.81004450469455
 20
1.738233804405543
 30
0.0
 11
12.81004450469455
 21
1.705425406198514
 31
0.0
 12
12.90846969931564
 22
1.721829605302028
 32
0.0
 13
12.90846969931564
 23
1.721829605302028
 33
0.0
  0
SOLID
  5
1532
330
1494
100
AcDbEntity
  8
Dimensions
  6
Continuous
 62
    47
100
AcDbTrace
 10
5.616894893936728
 20
1.738233804405543
 30
0.0
 11
5.616894893936728
 21
1.705425406198514
 31
0.0
 12
5.518469699315642
 22
1.721829605302028
 32
0.0
 13
5.518469699315642
 23
1.721829605302028
 33
0.0
  0
MTEXT
  5
1533
330
1494
100
AcDbEntity
  8
Dimensions
  6
Continuous
 62
    47
370
    25
100
AcDbMText
 10
11.4252401094455
 20
1.721829605302028
 30
0.0
 40
0.1200000047683716
 41
0.0
 71
     5
 72
     1
  1
\A1;7.390
  7
TextStyle8
 73
     1
 44
1.0
  0
POINT
  5
1534
330
1494
100
AcDbEntity
  8
Defpoints
  6
Continuous
 62
     0
100
AcDbPoint
 10
12.90846969931564
 20
5.658837479317775
 30
0.0
  0
POINT
  5
1535
330
1494
100
AcDbEntity
  8
Defpoints
  6
Continuous
 62
     0
100
AcDbPoint
 10
5.518469699315642
 20
6.158837479317782
 30
0.0
  0
POINT
  5
1536
330
1494
100
AcDbEntity
  8
Defpoints
  6
Continuous
 62
     0
100
AcDbPoint
 10
5.518469699315642
 20
1.721829605302028
 30
0.0
  0
ENDBLK
  5
14A0
330
1494
100
AcDbEntity
  8
0
100
AcDbBlockEnd
  0
BLOCK
  5
1543
330
1538
100
AcDbEntity
  8
0
100
AcDbBlockBegin
  2
*D33
 70
     1
 10
0.0
 20
0.0
 30
0.0
  3
*D33
  1

  0
LINE
  5
15D1
330
1538
100
AcDbEntity
  8
Dimensions
  6
Continuous
 62
    47
370
    25
100
AcDbLine
 10
12.59346969931564
 20
5.596337479317775
 30
0.0
 11
12.59346969931564
 21
1.833050077742973
 31
0.0
  0
LINE
  5
15D2
330
1538
100
AcDbEntity
  8
Dimensions
  6
Continuous
 62
    47
370
    25
100
AcDbLine
 10
5.518469699315642
 20
6.096337479317782
 30
0.0
 11
5.518469699315642
 21
1.833050077742973
 31
0.0
  0
LINE
  5
15D3
330
1538
100
AcDbEntity
  8
Dimensions
  6
Continuous
 62
    47
370
    25
100
AcDbLine
 10
12.49504450469455
 20
1.958050077742973
 30
0.0
 11
10.98536610240288
 21
1.958050077742973
 31
0.0
  0
LINE
  5
15D4
330
1538
100
AcDbEntity
  8
Dimensions
  6
Continuous
 62
    47
370
    25
100
AcDbLine
 10
5.616894893936728
 20
1.958050077742973
 30
0.0
 11
10.54180861437617
 21
1.958050077742973
 31
0.0
  0
SOLID
  5
15D5
330
1538
100
AcDbEntity
  8
Dimensions
  6
Continuous
 62
    47
100
AcDbTrace
 10
12.49504450469455
 20
1.974454276846488
 30
0.0
 11
12.49504450469455
 21
1.941645878639459
 31
0.0
 12
12.59346969931564
 22
1.958050077742973
 32
0.0
 13
12.59346969931564
 23
1.958050077742973
 33
0.0
  0
SOLID
  5
15D6
330
1538
100
AcDbEntity
  8
Dimensions
  6
Continuous
 62
    47
100
AcDbTrace
 10
5.616894893936728
 20
1.974454276846488
 30
0.0
 11
5.616894893936728
 21
1.941645878639459
 31
0.0
 12
5.518469699315642
 22
1.958050077742973
 32
0.0
 13
5.518469699315642
 23
1.958050077742973
 33
0.0
  0
MTEXT
  5
15D7
330
1538
100
AcDbEntity
  8
Dimensions
  6
Continuous
 62
    47
370
    25
100
AcDbMText
 10
10.76358735838953
 20
1.958050077742973
 30
0.0
 40
0.1200000047683716
 41
0.0
 71
     5
 72
     1
  1
\A1;7.075
  7
TextStyle8
 73
     1
 44
1.0
  0
POINT
  5
15D8
330
1538
100
AcDbEntity
  8
Defpoints
  6
Continuous
 62
     0
100
AcDbPoint
 10
12.59346969931564
 20
5.658837479317775
 30
0.0
  0
POINT
  5
15D9
330
1538
100
AcDbEntity
  8
Defpoints
  6
Continuous
 62
     0
100
AcDbPoint
 10
5.518469699315642
 20
6.158837479317782
 30
0.0
  0
POINT
  5
15DA
330
1538
100
AcDbEntity
  8
Defpoints
  6
Continuous
 62
     0
100
AcDbPoint
 10
5.518469699315642
 20
1.958050077742973
 30
0.0
  0
ENDBLK
  5
1544
330
1538
100
AcDbEntity
  8
0
100
AcDbBlockEnd
  0
BLOCK
  5
15E7
330
15DC
100
AcDbEntity
  8
0
100
AcDbBlockBegin
  2
*D34
 70
     1
 10
0.0
 20
0.0
 30
0.0
  3
*D34
  1

  0
LINE
  5
1675
330
15DC
100
AcDbEntity
  8
Dimensions
  6
Continuous
 62
    47
370
    25
100
AcDbLine
 10
12.00346969931564
 20
5.596337479317775
 30
0.0
 11
12.00346969931564
 21
2.047594804143613
 31
0.0
  0
LINE
  5
1676
330
15DC
100
AcDbEntity
  8
Dimensions
  6
Continuous
 62
    47
370
    25
100
AcDbLine
 10
5.518469699315642
 20
6.096337479317782
 30
0.0
 11
5.518469699315642
 21
2.047594804143613
 31
0.0
  0
LINE
  5
1677
330
15DC
100
AcDbEntity
  8
Dimensions
  6
Continuous
 62
    47
370
    25
100
AcDbLine
 10
11.90504450469455
 20
2.172594804143613
 30
0.0
 11
10.32448279203037
 21
2.172594804143613
 31
0.0
  0
LINE
  5
1678
330
15DC
100
AcDbEntity
  8
Dimensions
  6
Continuous
 62
    47
370
    25
100
AcDbLine
 10
5.616894893936728
 20
2.172594804143613
 30
0.0
 11
9.879386422636731
 21
2.172594804143613
 31
0.0
  0
SOLID
  5
1679
330
15DC
100
AcDbEntity
  8
Dimensions
  6
Continuous
 62
    47
100
AcDbTrace
 10
11.90504450469455
 20
2.188999003247127
 30
0.0
 11
11.90504450469455
 21
2.156190605040098
 31
0.0
 12
12.00346969931564
 22
2.172594804143613
 32
0.0
 13
12.00346969931564
 23
2.172594804143613
 33
0.0
  0
SOLID
  5
167A
330
15DC
100
AcDbEntity
  8
Dimensions
  6
Continuous
 62
    47
100
AcDbTrace
 10
5.616894893936728
 20
2.188999003247127
 30
0.0
 11
5.616894893936728
 21
2.156190605040098
 31
0.0
 12
5.518469699315642
 22
2.172594804143613
 32
0.0
 13
5.518469699315642
 23
2.172594804143613
 33
0.0
  0
MTEXT
  5
167B
330
15DC
100
AcDbEntity
  8
Dimensions
  6
Continuous
 62
    47
370
    25
100
AcDbMText
 10
10.10193460733355
 20
2.172594804143613
 30
0.0
 40
0.1200000047683716
 41
0.0
 71
     5
 72
     1
  1
\A1;6.485
  7
TextStyle8
 73
     1
 44
1.0
  0
POINT
  5
167C
330
15DC
100
AcDbEntity
  8
Defpoints
  6
Continuous
 62
     0
100
AcDbPoint
 10
12.00346969931564
 20
5.658837479317775
 30
0.0
  0
POINT
  5
167D
330
15DC
100
AcDbEntity
  8
Defpoints
  6
Continuous
 62
     0
100
AcDbPoint
 10
5.518469699315642
 20
6.158837479317782
 30
0.0
  0
POINT
  5
167E
330
15DC
100
AcDbEntity
  8
Defpoints
  6
Continuous
 62
     0
100
AcDbPoint
 10
5.518469699315642
 20
2.172594804143613
 30
0.0
  0
ENDBLK
  5
15E8
330
15DC
100
AcDbEntity
  8
0
100
AcDbBlockEnd
  0
BLOCK
  5
168B
330
1680
100
AcDbEntity
  8
0
100
AcDbBlockBegin
  2
*D35
 70
     1
 10
0.0
 20
0.0
 30
0.0
  3
*D35
  1

  0
LINE
  5
1719
330
1680
100
AcDbEntity
  8
Dimensions
  6
Continuous
 62
    47
370
    25
100
AcDbLine
 10
11.37346969931564
 20
5.596337479317775
 30
0.0
 11
11.37346969931564
 21
2.256537779262874
 31
0.0
  0
LINE
  5
171A
330
1680
100
AcDbEntity
  8
Dimensions
  6
Continuous
 62
    47
370
    25
100
AcDbLine
 10
5.518469699315642
 20
6.096337479317782
 30
0.0
 11
5.518469699315642
 21
2.256537779262874
 31
0.0
  0
LINE
  5
171B
330
1680
100
AcDbEntity
  8
Dimensions
  6
Continuous
 62
    47
370
    25
100
AcDbLine
 10
11.27504450469455
 20
2.381537779262874
 30
0.0
 11
9.401343547178914
 21
2.381537779262874
 31
0.0
  0
LINE
  5
171C
330
1680
100
AcDbEntity
  8
Dimensions
  6
Continuous
 62
    47
370
    25
100
AcDbLine
 10
5.616894893936728
 20
2.381537779262874
 30
0.0
 11
8.956862730332044
 21
2.381537779262874
 31
0.0
  0
SOLID
  5
171D
330
1680
100
AcDbEntity
  8
Dimensions
  6
Continuous
 62
    47
100
AcDbTrace
 10
11.27504450469455
 20
2.397941978366389
 30
0.0
 11
11.27504450469455
 21
2.36513358015936
 31
0.0
 12
11.37346969931564
 22
2.381537779262874
 32
0.0
 13
11.37346969931564
 23
2.381537779262874
 33
0.0
  0
SOLID
  5
171E
330
1680
100
AcDbEntity
  8
Dimensions
  6
Continuous
 62
    47
100
AcDbTrace
 10
5.616894893936728
 20
2.397941978366389
 30
0.0
 11
5.616894893936728
 21
2.36513358015936
 31
0.0
 12
5.518469699315642
 22
2.381537779262874
 32
0.0
 13
5.518469699315642
 23
2.381537779262874
 33
0.0
  0
MTEXT
  5
171F
330
1680
100
AcDbEntity
  8
Dimensions
  6
Continuous
 62
    47
370
    25
100
AcDbMText
 10
9.179103138755479
 20
2.381537779262874
 30
0.0
 40
0.1200000047683716
 41
0.0
 71
     5
 72
     1
  1
\A1;5.855
  7
TextStyle8
 73
     1
 44
1.0
  0
POINT
  5
1720
330
1680
100
AcDbEntity
  8
Defpoints
  6
Continuous
 62
     0
100
AcDbPoint
 10
11.37346969931564
 20
5.658837479317775
 30
0.0
  0
POINT
  5
1721
330
1680
100
AcDbEntity
  8
Defpoints
  6
Continuous
 62
     0
100
AcDbPoint
 10
5.518469699315642
 20
6.158837479317782
 30
0.0
  0
POINT
  5
1722
330
1680
100
AcDbEntity
  8
Defpoints
  6
Continuous
 62
     0
100
AcDbPoint
 10
5.518469699315642
 20
2.381537779262874
 30
0.0
  0
ENDBLK
  5
168C
330
1680
100
AcDbEntity
  8
0
100
AcDbBlockEnd
  0
BLOCK
  5
172F
330
1724
100
AcDbEntity
  8
0
100
AcDbBlockBegin
  2
*D36
 70
     1
 10
0.0
 20
0.0
 30
0.0
  3
*D36
  1

  0
LINE
  5
17BD
330
1724
100
AcDbEntity
  8
Dimensions
  6
Continuous
 62
    47
370
    25
100
AcDbLine
 10
11.05846969931564
 20
5.596337479317775
 30
0.0
 11
11.05846969931564
 21
2.465480754382137
 31
0.0
  0
LINE
  5
17BE
330
1724
100
AcDbEntity
  8
Dimensions
  6
Continuous
 62
    47
370
    25
100
AcDbLine
 10
5.518469699315642
 20
6.096337479317782
 30
0.0
 11
5.518469699315642
 21
2.465480754382137
 31
0.0
  0
LINE
  5
17BF
330
1724
100
AcDbEntity
  8
Dimensions
  6
Continuous
 62
    47
370
    25
100
AcDbLine
 10
10.96004450469455
 20
2.590480754382137
 30
0.0
 11
8.564956098561433
 21
2.590480754382137
 31
0.0
  0
LINE
  5
17C0
330
1724
100
AcDbEntity
  8
Dimensions
  6
Continuous
 62
    47
370
    25
100
AcDbLine
 10
5.616894893936728
 20
2.590480754382137
 30
0.0
 11
8.121706386808112
 21
2.590480754382137
 31
0.0
  0
SOLID
  5
17C1
330
1724
100
AcDbEntity
  8
Dimensions
  6
Continuous
 62
    47
100
AcDbTrace
 10
10.96004450469455
 20
2.606884953485651
 30
0.0
 11
10.96004450469455
 21
2.574076555278623
 31
0.0
 12
11.05846969931564
 22
2.590480754382137
 32
0.0
 13
11.05846969931564
 23
2.590480754382137
 33
0.0
  0
SOLID
  5
17C2
330
1724
100
AcDbEntity
  8
Dimensions
  6
Continuous
 62
    47
100
AcDbTrace
 10
5.616894893936728
 20
2.606884953485651
 30
0.0
 11
5.616894893936728
 21
2.574076555278623
 31
0.0
 12
5.518469699315642
 22
2.590480754382137
 32
0.0
 13
5.518469699315642
 23
2.590480754382137
 33
0.0
  0
MTEXT
  5
17C3
330
1724
100
AcDbEntity
  8
Dimensions
  6
Continuous
 62
    47
370
    25
100
AcDbMText
 10
8.343331242684772
 20
2.590480754382137
 30
0.0
 40
0.1200000047683716
 41
0.0
 71
     5
 72
     1
  1
\A1;5.540
  7
TextStyle8
 73
     1
 44
1.0
  0
POINT
  5
17C4
330
1724
100
AcDbEntity
  8
Defpoints
  6
Continuous
 62
     0
100
AcDbPoint
 10
11.05846969931564
 20
5.658837479317775
 30
0.0
  0
POINT
  5
17C5
330
1724
100
AcDbEntity
  8
Defpoints
  6
Continuous
 62
     0
100
AcDbPoint
 10
5.518469699315642
 20
6.158837479317782
 30
0.0
  0
POINT
  5
17C6
330
1724
100
AcDbEntity
  8
Defpoints
  6
Continuous
 62
     0
100
AcDbPoint
 10
5.518469699315642
 20
2.590480754382137
 30
0.0
  0
ENDBLK
  5
1730
330
1724
100
AcDbEntity
  8
0
100
AcDbBlockEnd
  0
BLOCK
  5
17D3
330
17C8
100
AcDbEntity
  8
0
100
AcDbBlockBegin
  2
*D37
 70
     1
 10
0.0
 20
0.0
 30
0.0
  3
*D37
  1

  0
LINE
  5
1861
330
17C8
100
AcDbEntity
  8
Dimensions
  6
Continuous
 62
    47
370
    25
100
AcDbLine
 10
10.74346969931564
 20
5.596337479317775
 30
0.0
 11
10.74346969931564
 21
2.657011814908128
 31
0.0
  0
LINE
  5
1862
330
17C8
100
AcDbEntity
  8
Dimensions
  6
Continuous
 62
    47
370
    25
100
AcDbLine
 10
5.518469699315642
 20
6.096337479317782
 30
0.0
 11
5.518469699315642
 21
2.657011814908128
 31
0.0
  0
LINE
  5
1863
330
17C8
100
AcDbEntity
  8
Dimensions
  6
Continuous
 62
    47
370
    25
100
AcDbLine
 10
10.64504450469455
 20
2.782011814908128
 30
0.0
 11
7.921330814553702
 21
2.782011814908128
 31
0.0
  0
LINE
  5
1864
330
17C8
100
AcDbEntity
  8
Dimensions
  6
Continuous
 62
    47
370
    25
100
AcDbLine
 10
5.616894893936728
 20
2.782011814908128
 30
0.0
 11
7.476849997706834
 21
2.782011814908128
 31
0.0
  0
SOLID
  5
1865
330
17C8
100
AcDbEntity
  8
Dimensions
  6
Continuous
 62
    47
100
AcDbTrace
 10
10.64504450469455
 20
2.798416014011642
 30
0.0
 11
10.64504450469455
 21
2.765607615804614
 31
0.0
 12
10.74346969931564
 22
2.782011814908128
 32
0.0
 13
10.74346969931564
 23
2.782011814908128
 33
0.0
  0
SOLID
  5
1866
330
17C8
100
AcDbEntity
  8
Dimensions
  6
Continuous
 62
    47
100
AcDbTrace
 10
5.616894893936728
 20
2.798416014011642
 30
0.0
 11
5.616894893936728
 21
2.765607615804614
 31
0.0
 12
5.518469699315642
 22
2.782011814908128
 32
0.0
 13
5.518469699315642
 23
2.782011814908128
 33
0.0
  0
MTEXT
  5
1867
330
17C8
100
AcDbEntity
  8
Dimensions
  6
Continuous
 62
    47
370
    25
100
AcDbMText
 10
7.699090406130268
 20
2.782011814908128
 30
0.0
 40
0.1200000047683716
 41
0.0
 71
     5
 72
     1
  1
\A1;5.225
  7
TextStyle8
 73
     1
 44
1.0
  0
POINT
  5
1868
330
17C8
100
AcDbEntity
  8
Defpoints
  6
Continuous
 62
     0
100
AcDbPoint
 10
10.74346969931564
 20
5.658837479317775
 30
0.0
  0
POINT
  5
1869
330
17C8
100
AcDbEntity
  8
Defpoints
  6
Continuous
 62
     0
100
AcDbPoint
 10
5.518469699315642
 20
6.158837479317782
 30
0.0
  0
POINT
  5
186A
330
17C8
100
AcDbEntity
  8
Defpoints
  6
Continuous
 62
     0
100
AcDbPoint
 10
5.518469699315642
 20
2.782011814908128
 30
0.0
  0
ENDBLK
  5
17D4
330
17C8
100
AcDbEntity
  8
0
100
AcDbBlockEnd
  0
BLOCK
  5
1877
330
186C
100
AcDbEntity
  8
0
100
AcDbBlockBegin
  2
*D38
 70
     1
 10
0.0
 20
0.0
 30
0.0
  3
*D38
  1

  0
LINE
  5
1905
330
186C
100
AcDbEntity
  8
Dimensions
  6
Continuous
 62
    47
370
    25
100
AcDbLine
 10
10.42846969931564
 20
5.596337479317775
 30
0.0
 11
10.42846969931564
 21
2.859555765314583
 31
0.0
  0
LINE
  5
1906
330
186C
100
AcDbEntity
  8
Dimensions
  6
Continuous
 62
    47
370
    25
100
AcDbLine
 10
5.518469699315642
 20
6.096337479317782
 30
0.0
 11
5.518469699315642
 21
2.859555765314583
 31
0.0
  0
LINE
  5
1907
330
186C
100
AcDbEntity
  8
Dimensions
  6
Continuous
 62
    47
370
    25
100
AcDbLine
 10
10.33004450469455
 20
2.984555765314583
 30
0.0
 11
8.398914417177001
 21
2.984555765314583
 31
0.0
  0
LINE
  5
1908
330
186C
100
AcDbEntity
  8
Dimensions
  6
Continuous
 62
    47
370
    25
100
AcDbLine
 10
5.616894893936728
 20
2.984555765314583
 30
0.0
 11
7.951125005391228
 21
2.984555765314583
 31
0.0
  0
SOLID
  5
1909
330
186C
100
AcDbEntity
  8
Dimensions
  6
Continuous
 62
    47
100
AcDbTrace
 10
10.33004450469455
 20
3.000959964418098
 30
0.0
 11
10.33004450469455
 21
2.968151566211069
 31
0.0
 12
10.42846969931564
 22
2.984555765314583
 32
0.0
 13
10.42846969931564
 23
2.984555765314583
 33
0.0
  0
SOLID
  5
190A
330
186C
100
AcDbEntity
  8
Dimensions
  6
Continuous
 62
    47
100
AcDbTrace
 10
5.616894893936728
 20
3.000959964418098
 30
0.0
 11
5.616894893936728
 21
2.968151566211069
 31
0.0
 12
5.518469699315642
 22
2.984555765314583
 32
0.0
 13
5.518469699315642
 23
2.984555765314583
 33
0.0
  0
MTEXT
  5
190B
330
186C
100
AcDbEntity
  8
Dimensions
  6
Continuous
 62
    47
370
    25
100
AcDbMText
 10
8.175019711284114
 20
2.984555765314583
 30
0.0
 40
0.1200000047683716
 41
0.0
 71
     5
 72
     1
  1
\A1;4.910
  7
TextStyle8
 73
     1
 44
1.0
  0
POINT
  5
190C
330
186C
100
AcDbEntity
  8
Defpoints
  6
Continuous
 62
     0
100
AcDbPoint
 10
10.42846969931564
 20
5.658837479317775
 30
0.0
  0
POINT
  5
190D
330
186C
100
AcDbEntity
  8
Defpoints
  6
Continuous
 62
     0
100
AcDbPoint
 10
5.518469699315642
 20
6.158837479317782
 30
0.0
  0
POINT
  5
190E
330
186C
100
AcDbEntity
  8
Defpoints
  6
Continuous
 62
     0
100
AcDbPoint
 10
5.518469699315642
 20
2.984555765314583
 30
0.0
  0
ENDBLK
  5
1878
330
186C
100
AcDbEntity
  8
0
100
AcDbBlockEnd
  0
BLOCK
  5
191B
330
1910
100
AcDbEntity
  8
0
100
AcDbBlockBegin
  2
*D39
 70
     1
 10
0.0
 20
0.0
 30
0.0
  3
*D39
  1

  0
LINE
  5
19A9
330
1910
100
AcDbEntity
  8
Dimensions
  6
Continuous
 62
    47
370
    25
100
AcDbLine
 10
10.11346969931564
 20
5.596337479317775
 30
0.0
 11
10.11346969931564
 21
3.049032711952023
 31
0.0
  0
LINE
  5
19AA
330
1910
100
AcDbEntity
  8
Dimensions
  6
Continuous
 62
    47
370
    25
100
AcDbLine
 10
5.518469699315642
 20
6.096337479317782
 30
0.0
 11
5.518469699315642
 21
3.049032711952023
 31
0.0
  0
LINE
  5
19AB
330
1910
100
AcDbEntity
  8
Dimensions
  6
Continuous
 62
    47
370
    25
100
AcDbLine
 10
10.01504450469455
 20
3.174032711952023
 30
0.0
 11
7.455067250398427
 21
3.174032711952023
 31
0.0
  0
LINE
  5
19AC
330
1910
100
AcDbEntity
  8
Dimensions
  6
Continuous
 62
    47
370
    25
100
AcDbLine
 10
5.616894893936728
 20
3.174032711952023
 30
0.0
 11
7.006046733519107
 21
3.174032711952023
 31
0.0
  0
SOLID
  5
19AD
330
1910
100
AcDbEntity
  8
Dimensions
  6
Continuous
 62
    47
100
AcDbTrace
 10
10.01504450469455
 20
3.190436911055538
 30
0.0
 11
10.01504450469455
 21
3.157628512848509
 31
0.0
 12
10.11346969931564
 22
3.174032711952023
 32
0.0
 13
10.11346969931564
 23
3.174032711952023
 33
0.0
  0
SOLID
  5
19AE
330
1910
100
AcDbEntity
  8
Dimensions
  6
Continuous
 62
    47
100
AcDbTrace
 10
5.616894893936728
 20
3.190436911055538
 30
0.0
 11
5.616894893936728
 21
3.157628512848509
 31
0.0
 12
5.518469699315642
 22
3.174032711952023
 32
0.0
 13
5.518469699315642
 23
3.174032711952023
 33
0.0
  0
MTEXT
  5
19AF
330
1910
100
AcDbEntity
  8
Dimensions
  6
Continuous
 62
    47
370
    25
100
AcDbMText
 10
7.230556991958767
 20
3.174032711952023
 30
0.0
 40
0.1200000047683716
 41
0.0
 71
     5
 72
     1
  1
\A1;4.595
  7
TextStyle8
 73
     1
 44
1.0
  0
POINT
  5
19B0
330
1910
100
AcDbEntity
  8
Defpoints
  6
Continuous
 62
     0
100
AcDbPoint
 10
10.11346969931564
 20
5.658837479317775
 30
0.0
  0
POINT
  5
19B1
330
1910
100
AcDbEntity
  8
Defpoints
  6
Continuous
 62
     0
100
AcDbPoint
 10
5.518469699315642
 20
6.158837479317782
 30
0.0
  0
POINT
  5
19B2
330
1910
100
AcDbEntity
  8
Defpoints
  6
Continuous
 62
     0
100
AcDbPoint
 10
5.518469699315642
 20
3.174032711952023
 30
0.0
  0
ENDBLK
  5
191C
330
1910
100
AcDbEntity
  8
0
100
AcDbBlockEnd
  0
BLOCK
  5
19BF
330
19B4
100
AcDbEntity
  8
0
100
AcDbBlockBegin
  2
*D40
 70
     1
 10
0.0
 20
0.0
 30
0.0
  3
*D40
  1

  0
LINE
  5
1A4D
330
19B4
100
AcDbEntity
  8
Dimensions
  6
Continuous
 62
    47
370
    25
100
AcDbLine
 10
9.79846969931564
 20
5.596337479317775
 30
0.0
 11
9.79846969931564
 21
3.454142977763018
 31
0.0
  0
LINE
  5
1A4E
330
19B4
100
AcDbEntity
  8
Dimensions
  6
Continuous
 62
    47
370
    25
100
AcDbLine
 10
5.518469699315642
 20
6.096337479317782
 30
0.0
 11
5.518469699315642
 21
3.454142977763018
 31
0.0
  0
LINE
  5
1A4F
330
19B4
100
AcDbEntity
  8
Dimensions
  6
Continuous
 62
    47
370
    25
100
AcDbLine
 10
9.700044504694554
 20
3.579142977763018
 30
0.0
 11
6.804716901628363
 21
3.579142977763018
 31
0.0
  0
LINE
  5
1A50
330
19B4
100
AcDbEntity
  8
Dimensions
  6
Continuous
 62
    47
370
    25
100
AcDbLine
 10
5.616894893936728
 20
3.579142977763018
 30
0.0
 11
6.35692748984259
 21
3.579142977763018
 31
0.0
  0
SOLID
  5
1A51
330
19B4
100
AcDbEntity
  8
Dimensions
  6
Continuous
 62
    47
100
AcDbTrace
 10
9.700044504694554
 20
3.595547176866532
 30
0.0
 11
9.700044504694554
 21
3.562738778659503
 31
0.0
 12
9.79846969931564
 22
3.579142977763018
 32
0.0
 13
9.79846969931564
 23
3.579142977763018
 33
0.0
  0
SOLID
  5
1A52
330
19B4
100
AcDbEntity
  8
Dimensions
  6
Continuous
 62
    47
100
AcDbTrace
 10
5.616894893936728
 20
3.595547176866532
 30
0.0
 11
5.616894893936728
 21
3.562738778659503
 31
0.0
 12
5.518469699315642
 22
3.579142977763018
 32
0.0
 13
5.518469699315642
 23
3.579142977763018
 33
0.0
  0
MTEXT
  5
1A53
330
19B4
100
AcDbEntity
  8
Dimensions
  6
Continuous
 62
    47
370
    25
100
AcDbMText
 10
6.580822195735477
 20
3.579142977763018
 30
0.0
 40
0.1200000047683716
 41
0.0
 71
     5
 72
     1
  1
\A1;4.280
  7
TextStyle8
 73
     1
 44
1.0
  0
POINT
  5
1A54
330
19B4
100
AcDbEntity
  8
Defpoints
  6
Continuous
 62
     0
100
AcDbPoint
 10
9.79846969931564
 20
5.658837479317775
 30
0.0
  0
POINT
  5
1A55
330
19B4
100
AcDbEntity
  8
Defpoints
  6
Continuous
 62
     0
100
AcDbPoint
 10
5.518469699315642
 20
6.158837479317782
 30
0.0
  0
POINT
  5
1A56
330
19B4
100
AcDbEntity
  8
Defpoints
  6
Continuous
 62
     0
100
AcDbPoint
 10
5.518469699315642
 20
3.579142977763018
 30
0.0
  0
ENDBLK
  5
19C0
330
19B4
100
AcDbEntity
  8
0
100
AcDbBlockEnd
  0
BLOCK
  5
1A63
330
1A58
100
AcDbEntity
  8
0
100
AcDbBlockBegin
  2
*D41
 70
     1
 10
0.0
 20
0.0
 30
0.0
  3
*D41
  1

  0
LINE
  5
1AF1
330
1A58
100
AcDbEntity
  8
Dimensions
  6
Continuous
 62
    47
370
    25
100
AcDbLine
 10
9.483469699315643
 20
5.596337479317775
 30
0.0
 11
9.483469699315643
 21
3.661654312956727
 31
0.0
  0
LINE
  5
1AF2
330
1A58
100
AcDbEntity
  8
Dimensions
  6
Continuous
 62
    47
370
    25
100
AcDbLine
 10
5.518469699315642
 20
6.096337479317782
 30
0.0
 11
5.518469699315642
 21
3.661654312956727
 31
0.0
  0
LINE
  5
1AF3
330
1A58
100
AcDbEntity
  8
Dimensions
  6
Continuous
 62
    47
370
    25
100
AcDbLine
 10
9.385044504694556
 20
3.786654312956727
 30
0.0
 11
6.322471557275203
 21
3.786654312956727
 31
0.0
  0
LINE
  5
1AF4
330
1A58
100
AcDbEntity
  8
Dimensions
  6
Continuous
 62
    47
370
    25
100
AcDbLine
 10
5.616894893936728
 20
3.786654312956727
 30
0.0
 11
5.878067684496681
 21
3.786654312956727
 31
0.0
  0
SOLID
  5
1AF5
330
1A58
100
AcDbEntity
  8
Dimensions
  6
Continuous
 62
    47
100
AcDbTrace
 10
9.385044504694556
 20
3.803058512060241
 30
0.0
 11
9.385044504694556
 21
3.770250113853213
 31
0.0
 12
9.483469699315643
 22
3.786654312956727
 32
0.0
 13
9.483469699315643
 23
3.786654312956727
 33
0.0
  0
SOLID
  5
1AF6
330
1A58
100
AcDbEntity
  8
Dimensions
  6
Continuous
 62
    47
100
AcDbTrace
 10
5.616894893936728
 20
3.803058512060241
 30
0.0
 11
5.616894893936728
 21
3.770250113853213
 31
0.0
 12
5.518469699315642
 22
3.786654312956727
 32
0.0
 13
5.518469699315642
 23
3.786654312956727
 33
0.0
  0
MTEXT
  5
1AF7
330
1A58
100
AcDbEntity
  8
Dimensions
  6
Continuous
 62
    47
370
    25
100
AcDbMText
 10
6.100269620885942
 20
3.786654312956727
 30
0.0
 40
0.1200000047683716
 41
0.0
 71
     5
 72
     1
  1
\A1;3.965
  7
TextStyle8
 73
     1
 44
1.0
  0
POINT
  5
1AF8
330
1A58
100
AcDbEntity
  8
Defpoints
  6
Continuous
 62
     0
100
AcDbPoint
 10
9.483469699315643
 20
5.658837479317775
 30
0.0
  0
POINT
  5
1AF9
330
1A58
100
AcDbEntity
  8
Defpoints
  6
Continuous
 62
     0
100
AcDbPoint
 10
5.518469699315642
 20
6.158837479317782
 30
0.0
  0
POINT
  5
1AFA
330
1A58
100
AcDbEntity
  8
Defpoints
  6
Continuous
 62
     0
100
AcDbPoint
 10
5.518469699315642
 20
3.786654312956727
 30
0.0
  0
ENDBLK
  5
1A64
330
1A58
100
AcDbEntity
  8
0
100
AcDbBlockEnd
  0
BLOCK
  5
1B07
330
1AFC
100
AcDbEntity
  8
0
100
AcDbBlockBegin
  2
*D42
 70
     1
 10
0.0
 20
0.0
 30
0.0
  3
*D42
  1

  0
LINE
  5
1B95
330
1AFC
100
AcDbEntity
  8
Dimensions
  6
Continuous
 62
    47
370
    25
100
AcDbLine
 10
8.85346969931564
 20
5.596337479317775
 30
0.0
 11
8.85346969931564
 21
3.901930595812604
 31
0.0
  0
LINE
  5
1B96
330
1AFC
100
AcDbEntity
  8
Dimensions
  6
Continuous
 62
    47
370
    25
100
AcDbLine
 10
5.518469699315642
 20
6.096337479317782
 30
0.0
 11
5.518469699315642
 21
3.901930595812604
 31
0.0
  0
LINE
  5
1B97
330
1AFC
100
AcDbEntity
  8
Dimensions
  6
Continuous
 62
    47
370
    25
100
AcDbLine
 10
8.755044504694554
 20
4.026930595812604
 30
0.0
 11
7.425558149543453
 21
4.026930595812604
 31
0.0
  0
LINE
  5
1B98
330
1AFC
100
AcDbEntity
  8
Dimensions
  6
Continuous
 62
    47
370
    25
100
AcDbLine
 10
5.616894893936728
 20
4.026930595812604
 30
0.0
 11
6.981154276764931
 21
4.026930595812604
 31
0.0
  0
SOLID
  5
1B99
330
1AFC
100
AcDbEntity
  8
Dimensions
  6
Continuous
 62
    47
100
AcDbTrace
 10
8.755044504694554
 20
4.043334794916119
 30
0.0
 11
8.755044504694554
 21
4.01052639670909
 31
0.0
 12
8.85346969931564
 22
4.026930595812604
 32
0.0
 13
8.85346969931564
 23
4.026930595812604
 33
0.0
  0
SOLID
  5
1B9A
330
1AFC
100
AcDbEntity
  8
Dimensions
  6
Continuous
 62
    47
100
AcDbTrace
 10
5.616894893936728
 20
4.043334794916119
 30
0.0
 11
5.616894893936728
 21
4.01052639670909
 31
0.0
 12
5.518469699315642
 22
4.026930595812604
 32
0.0
 13
5.518469699315642
 23
4.026930595812604
 33
0.0
  0
MTEXT
  5
1B9B
330
1AFC
100
AcDbEntity
  8
Dimensions
  6
Continuous
 62
    47
370
    25
100
AcDbMText
 10
7.203356213154192
 20
4.026930595812604
 30
0.0
 40
0.1200000047683716
 41
0.0
 71
     5
 72
     1
  1
\A1;3.335
  7
TextStyle8
 73
     1
 44
1.0
  0
POINT
  5
1B9C
330
1AFC
100
AcDbEntity
  8
Defpoints
  6
Continuous
 62
     0
100
AcDbPoint
 10
8.85346969931564
 20
5.658837479317775
 30
0.0
  0
POINT
  5
1B9D
330
1AFC
100
AcDbEntity
  8
Defpoints
  6
Continuous
 62
     0
100
AcDbPoint
 10
5.518469699315642
 20
6.158837479317782
 30
0.0
  0
POINT
  5
1B9E
330
1AFC
100
AcDbEntity
  8
Defpoints
  6
Continuous
 62
     0
100
AcDbPoint
 10
5.518469699315642
 20
4.026930595812604
 30
0.0
  0
ENDBLK
  5
1B08
330
1AFC
100
AcDbEntity
  8
0
100
AcDbBlockEnd
  0
BLOCK
  5
1BAB
330
1BA0
100
AcDbEntity
  8
0
100
AcDbBlockBegin
  2
*D43
 70
     1
 10
0.0
 20
0.0
 30
0.0
  3
*D43
  1

  0
LINE
  5
1C39
330
1BA0
100
AcDbEntity
  8
Dimensions
  6
Continuous
 62
    47
370
    25
100
AcDbLine
 10
8.538469699315642
 20
5.596337479317775
 30
0.0
 11
8.538469699315642
 21
4.13128522944776
 31
0.0
  0
LINE
  5
1C3A
330
1BA0
100
AcDbEntity
  8
Dimensions
  6
Continuous
 62
    47
370
    25
100
AcDbLine
 10
5.518469699315642
 20
6.096337479317782
 30
0.0
 11
5.518469699315642
 21
4.13128522944776
 31
0.0
  0
LINE
  5
1C3B
330
1BA0
100
AcDbEntity
  8
Dimensions
  6
Continuous
 62
    47
370
    25
100
AcDbLine
 10
8.440044504694556
 20
4.25628522944776
 30
0.0
 11
7.960103418988206
 21
4.25628522944776
 31
0.0
  0
LINE
  5
1C3C
330
1BA0
100
AcDbEntity
  8
Dimensions
  6
Continuous
 62
    47
370
    25
100
AcDbLine
 10
5.616894893936728
 20
4.25628522944776
 30
0.0
 11
7.516930651303231
 21
4.25628522944776
 31
0.0
  0
SOLID
  5
1C3D
330
1BA0
100
AcDbEntity
  8
Dimensions
  6
Continuous
 62
    47
100
AcDbTrace
 10
8.440044504694556
 20
4.272689428551275
 30
0.0
 11
8.440044504694556
 21
4.239881030344245
 31
0.0
 12
8.538469699315642
 22
4.25628522944776
 32
0.0
 13
8.538469699315642
 23
4.25628522944776
 33
0.0
  0
SOLID
  5
1C3E
330
1BA0
100
AcDbEntity
  8
Dimensions
  6
Continuous
 62
    47
100
AcDbTrace
 10
5.616894893936728
 20
4.272689428551275
 30
0.0
 11
5.616894893936728
 21
4.239881030344245
 31
0.0
 12
5.518469699315642
 22
4.25628522944776
 32
0.0
 13
5.518469699315642
 23
4.25628522944776
 33
0.0
  0
MTEXT
  5
1C3F
330
1BA0
100
AcDbEntity
  8
Dimensions
  6
Continuous
 62
    47
370
    25
100
AcDbMText
 10
7.738517035145719
 20
4.25628522944776
 30
0.0
 40
0.1200000047683716
 41
0.0
 71
     5
 72
     1
  1
\A1;3.020
  7
TextStyle8
 73
     1
 44
1.0
  0
POINT
  5
1C40
330
1BA0
100
AcDbEntity
  8
Defpoints
  6
Continuous
 62
     0
100
AcDbPoint
 10
8.538469699315642
 20
5.658837479317775
 30
0.0
  0
POINT
  5
1C41
330
1BA0
100
AcDbEntity
  8
Defpoints
  6
Continuous
 62
     0
100
AcDbPoint
 10
5.518469699315642
 20
6.158837479317782
 30
0.0
  0
POINT
  5
1C42
330
1BA0
100
AcDbEntity
  8
Defpoints
  6
Continuous
 62
     0
100
AcDbPoint
 10
5.518469699315642
 20
4.25628522944776
 30
0.0
  0
ENDBLK
  5
1BAC
330
1BA0
100
AcDbEntity
  8
0
100
AcDbBlockEnd
  0
BLOCK
  5
1C4F
330
1C44
100
AcDbEntity
  8
0
100
AcDbBlockBegin
  2
*D44
 70
     1
 10
0.0
 20
0.0
 30
0.0
  3
*D44
  1

  0
LINE
  5
1CDD
330
1C44
100
AcDbEntity
  8
Dimensions
  6
Continuous
 62
    47
370
    25
100
AcDbLine
 10
8.223469699315641
 20
5.596337479317775
 30
0.0
 11
8.223469699315641
 21
4.349718213862193
 31
0.0
  0
LINE
  5
1CDE
330
1C44
100
AcDbEntity
  8
Dimensions
  6
Continuous
 62
    47
370
    25
100
AcDbLine
 10
5.518469699315642
 20
6.096337479317782
 30
0.0
 11
5.518469699315642
 21
4.349718213862193
 31
0.0
  0
LINE
  5
1CDF
330
1C44
100
AcDbEntity
  8
Dimensions
  6
Continuous
 62
    47
370
    25
100
AcDbLine
 10
8.125044504694555
 20
4.474718213862193
 30
0.0
 11
7.459323370717154
 21
4.474718213862193
 31
0.0
  0
LINE
  5
1CE0
330
1C44
100
AcDbEntity
  8
Dimensions
  6
Continuous
 62
    47
370
    25
100
AcDbLine
 10
5.616894893936728
 20
4.474718213862193
 30
0.0
 11
7.012918952161619
 21
4.474718213862193
 31
0.0
  0
SOLID
  5
1CE1
330
1C44
100
AcDbEntity
  8
Dimensions
  6
Continuous
 62
    47
100
AcDbTrace
 10
8.125044504694555
 20
4.491122412965708
 30
0.0
 11
8.125044504694555
 21
4.458314014758679
 31
0.0
 12
8.223469699315641
 22
4.474718213862193
 32
0.0
 13
8.223469699315641
 23
4.474718213862193
 33
0.0
  0
SOLID
  5
1CE2
330
1C44
100
AcDbEntity
  8
Dimensions
  6
Continuous
 62
    47
100
AcDbTrace
 10
5.616894893936728
 20
4.491122412965708
 30
0.0
 11
5.616894893936728
 21
4.458314014758679
 31
0.0
 12
5.518469699315642
 22
4.474718213862193
 32
0.0
 13
5.518469699315642
 23
4.474718213862193
 33
0.0
  0
MTEXT
  5
1CE3
330
1C44
100
AcDbEntity
  8
Dimensions
  6
Continuous
 62
    47
370
    25
100
AcDbMText
 10
7.236121161439386
 20
4.474718213862193
 30
0.0
 40
0.1200000047683716
 41
0.0
 71
     5
 72
     1
  1
\A1;2.705
  7
TextStyle8
 73
     1
 44
1.0
  0
POINT
  5
1CE4
330
1C44
100
AcDbEntity
  8
Defpoints
  6
Continuous
 62
     0
100
AcDbPoint
 10
8.223469699315641
 20
5.658837479317775
 30
0.0
  0
POINT
  5
1CE5
330
1C44
100
AcDbEntity
  8
Defpoints
  6
Continuous
 62
     0
100
AcDbPoint
 10
5.518469699315642
 20
6.158837479317782
 30
0.0
  0
POINT
  5
1CE6
330
1C44
100
AcDbEntity
  8
Defpoints
  6
Continuous
 62
     0
100
AcDbPoint
 10
5.518469699315642
 20
4.474718213862193
 30
0.0
  0
ENDBLK
  5
1C50
330
1C44
100
AcDbEntity
  8
0
100
AcDbBlockEnd
  0
BLOCK
  5
1CF3
330
1CE8
100
AcDbEntity
  8
0
100
AcDbBlockBegin
  2
*D45
 70
     1
 10
0.0
 20
0.0
 30
0.0
  3
*D45
  1

  0
LINE
  5
1D81
330
1CE8
100
AcDbEntity
  8
Dimensions
  6
Continuous
 62
    47
370
    25
100
AcDbLine
 10
7.908469699315642
 20
5.596337479317775
 30
0.0
 11
7.908469699315642
 21
4.557229549055903
 31
0.0
  0
LINE
  5
1D82
330
1CE8
100
AcDbEntity
  8
Dimensions
  6
Continuous
 62
    47
370
    25
100
AcDbLine
 10
5.518469699315642
 20
6.096337479317782
 30
0.0
 11
5.518469699315642
 21
4.557229549055903
 31
0.0
  0
LINE
  5
1D83
330
1CE8
100
AcDbEntity
  8
Dimensions
  6
Continuous
 62
    47
370
    25
100
AcDbLine
 10
7.810044504694555
 20
4.682229549055903
 30
0.0
 11
7.025017261913209
 21
4.682229549055903
 31
0.0
  0
LINE
  5
1D84
330
1CE8
100
AcDbEntity
  8
Dimensions
  6
Continuous
 62
    47
370
    25
100
AcDbLine
 10
5.616894893936728
 20
4.682229549055903
 30
0.0
 11
6.579843948451221
 21
4.682229549055903
 31
0.0
  0
SOLID
  5
1D85
330
1CE8
100
AcDbEntity
  8
Dimensions
  6
Continuous
 62
    47
100
AcDbTrace
 10
7.810044504694555
 20
4.698633748159418
 30
0.0
 11
7.810044504694555
 21
4.665825349952388
 31
0.0
 12
7.908469699315642
 22
4.682229549055903
 32
0.0
 13
7.908469699315642
 23
4.682229549055903
 33
0.0
  0
SOLID
  5
1D86
330
1CE8
100
AcDbEntity
  8
Dimensions
  6
Continuous
 62
    47
100
AcDbTrace
 10
5.616894893936728
 20
4.698633748159418
 30
0.0
 11
5.616894893936728
 21
4.665825349952388
 31
0.0
 12
5.518469699315642
 22
4.682229549055903
 32
0.0
 13
5.518469699315642
 23
4.682229549055903
 33
0.0
  0
MTEXT
  5
1D87
330
1CE8
100
AcDbEntity
  8
Dimensions
  6
Continuous
 62
    47
370
    25
100
AcDbMText
 10
6.802430605182215
 20
4.682229549055903
 30
0.0
 40
0.1200000047683716
 41
0.0
 71
     5
 72
     1
  1
\A1;2.390
  7
TextStyle8
 73
     1
 44
1.0
  0
POINT
  5
1D88
330
1CE8
100
AcDbEntity
  8
Defpoints
  6
Continuous
 62
     0
100
AcDbPoint
 10
7.908469699315642
 20
5.658837479317775
 30
0.0
  0
POINT
  5
1D89
330
1CE8
100
AcDbEntity
  8
Defpoints
  6
Continuous
 62
     0
100
AcDbPoint
 10
5.518469699315642
 20
6.158837479317782
 30
0.0
  0
POINT
  5
1D8A
330
1CE8
100
AcDbEntity
  8
Defpoints
  6
Continuous
 62
     0
100
AcDbPoint
 10
5.518469699315642
 20
4.682229549055903
 30
0.0
  0
ENDBLK
  5
1CF4
330
1CE8
100
AcDbEntity
  8
0
100
AcDbBlockEnd
  0
BLOCK
  5
1D97
330
1D8C
100
AcDbEntity
  8
0
100
AcDbBlockBegin
  2
*D46
 70
     1
 10
0.0
 20
0.0
 30
0.0
  3
*D46
  1

  0
LINE
  5
1E25
330
1D8C
100
AcDbEntity
  8
Dimensions
  6
Continuous
 62
    47
370
    25
100
AcDbLine
 10
7.593469699315641
 20
5.596337479317775
 30
0.0
 11
7.593469699315641
 21
4.797505831911779
 31
0.0
  0
LINE
  5
1E26
330
1D8C
100
AcDbEntity
  8
Dimensions
  6
Continuous
 62
    47
370
    25
100
AcDbLine
 10
5.518469699315642
 20
6.096337479317782
 30
0.0
 11
5.518469699315642
 21
4.797505831911779
 31
0.0
  0
LINE
  5
1E27
330
1D8C
100
AcDbEntity
  8
Dimensions
  6
Continuous
 62
    47
370
    25
100
AcDbLine
 10
7.495044504694555
 20
4.922505831911779
 30
0.0
 11
7.240890382149183
 21
4.922505831911779
 31
0.0
  0
LINE
  5
1E28
330
1D8C
100
AcDbEntity
  8
Dimensions
  6
Continuous
 62
    47
370
    25
100
AcDbLine
 10
5.616894893936728
 20
4.922505831911779
 30
0.0
 11
6.794485963593649
 21
4.922505831911779
 31
0.0
  0
SOLID
  5
1E29
330
1D8C
100
AcDbEntity
  8
Dimensions
  6
Continuous
 62
    47
100
AcDbTrace
 10
7.495044504694555
 20
4.938910031015294
 30
0.0
 11
7.495044504694555
 21
4.906101632808264
 31
0.0
 12
7.593469699315641
 22
4.922505831911779
 32
0.0
 13
7.593469699315641
 23
4.922505831911779
 33
0.0
  0
SOLID
  5
1E2A
330
1D8C
100
AcDbEntity
  8
Dimensions
  6
Continuous
 62
    47
100
AcDbTrace
 10
5.616894893936728
 20
4.938910031015294
 30
0.0
 11
5.616894893936728
 21
4.906101632808264
 31
0.0
 12
5.518469699315642
 22
4.922505831911779
 32
0.0
 13
5.518469699315642
 23
4.922505831911779
 33
0.0
  0
MTEXT
  5
1E2B
330
1D8C
100
AcDbEntity
  8
Dimensions
  6
Continuous
 62
    47
370
    25
100
AcDbMText
 10
7.017688172871416
 20
4.922505831911779
 30
0.0
 40
0.1200000047683716
 41
0.0
 71
     5
 72
     1
  1
\A1;2.075
  7
TextStyle8
 73
     1
 44
1.0
  0
POINT
  5
1E2C
330
1D8C
100
AcDbEntity
  8
Defpoints
  6
Continuous
 62
     0
100
AcDbPoint
 10
7.593469699315641
 20
5.658837479317775
 30
0.0
  0
POINT
  5
1E2D
330
1D8C
100
AcDbEntity
  8
Defpoints
  6
Continuous
 62
     0
100
AcDbPoint
 10
5.518469699315642
 20
6.158837479317782
 30
0.0
  0
POINT
  5
1E2E
330
1D8C
100
AcDbEntity
  8
Defpoints
  6
Continuous
 62
     0
100
AcDbPoint
 10
5.518469699315642
 20
4.922505831911779
 30
0.0
  0
ENDBLK
  5
1D98
330
1D8C
100
AcDbEntity
  8
0
100
AcDbBlockEnd
  0
BLOCK
  5
1E3B
330
1E30
100
AcDbEntity
  8
0
100
AcDbBlockBegin
  2
*D47
 70
     1
 10
0.0
 20
0.0
 30
0.0
  3
*D47
  1

  0
LINE
  5
1EC9
330
1E30
100
AcDbEntity
  8
Dimensions
  6
Continuous
 62
    47
370
    25
100
AcDbLine
 10
6.768469699315643
 20
5.596337479317775
 30
0.0
 11
6.768469699315643
 21
5.037782114767658
 31
0.0
  0
LINE
  5
1ECA
330
1E30
100
AcDbEntity
  8
Dimensions
  6
Continuous
 62
    47
370
    25
100
AcDbLine
 10
5.518469699315642
 20
6.096337479317782
 30
0.0
 11
5.518469699315642
 21
5.037782114767658
 31
0.0
  0
LINE
  5
1ECB
330
1E30
100
AcDbEntity
  8
Dimensions
  6
Continuous
 62
    47
370
    25
100
AcDbLine
 10
6.670044504694557
 20
5.162782114767658
 30
0.0
 11
6.480410077472662
 21
5.162782114767658
 31
0.0
  0
LINE
  5
1ECC
330
1E30
100
AcDbEntity
  8
Dimensions
  6
Continuous
 62
    47
370
    25
100
AcDbLine
 10
5.616894893936728
 20
5.162782114767658
 30
0.0
 11
6.047778647151175
 21
5.162782114767658
 31
0.0
  0
SOLID
  5
1ECD
330
1E30
100
AcDbEntity
  8
Dimensions
  6
Continuous
 62
    47
100
AcDbTrace
 10
6.670044504694557
 20
5.179186313871173
 30
0.0
 11
6.670044504694557
 21
5.146377915664143
 31
0.0
 12
6.768469699315643
 22
5.162782114767658
 32
0.0
 13
6.768469699315643
 23
5.162782114767658
 33
0.0
  0
SOLID
  5
1ECE
330
1E30
100
AcDbEntity
  8
Dimensions
  6
Continuous
 62
    47
100
AcDbTrace
 10
5.616894893936728
 20
5.179186313871173
 30
0.0
 11
5.616894893936728
 21
5.146377915664143
 31
0.0
 12
5.518469699315642
 22
5.162782114767658
 32
0.0
 13
5.518469699315642
 23
5.162782114767658
 33
0.0
  0
MTEXT
  5
1ECF
330
1E30
100
AcDbEntity
  8
Dimensions
  6
Continuous
 62
    47
370
    25
100
AcDbMText
 10
6.264094362311919
 20
5.162782114767658
 30
0.0
 40
0.1200000047683716
 41
0.0
 71
     5
 72
     1
  1
\A1;1.250
  7
TextStyle8
 73
     1
 44
1.0
  0
POINT
  5
1ED0
330
1E30
100
AcDbEntity
  8
Defpoints
  6
Continuous
 62
     0
100
AcDbPoint
 10
6.768469699315643
 20
5.658837479317775
 30
0.0
  0
POINT
  5
1ED1
330
1E30
100
AcDbEntity
  8
Defpoints
  6
Continuous
 62
     0
100
AcDbPoint
 10
5.518469699315642
 20
6.158837479317782
 30
0.0
  0
POINT
  5
1ED2
330
1E30
100
AcDbEntity
  8
Defpoints
  6
Continuous
 62
     0
100
AcDbPoint
 10
5.518469699315642
 20
5.162782114767658
 30
0.0
  0
ENDBLK
  5
1E3C
330
1E30
100
AcDbEntity
  8
0
100
AcDbBlockEnd
  0
BLOCK
  5
1EDF
330
1ED4
100
AcDbEntity
  8
0
100
AcDbBlockBegin
  2
*D48
 70
     1
 10
0.0
 20
0.0
 30
0.0
  3
*D48
  1

  0
LINE
  5
1F6D
330
1ED4
100
AcDbEntity
  8
Dimensions
  6
Continuous
 62
    47
370
    25
100
AcDbLine
 10
6.018469699315641
 20
5.596337479317775
 30
0.0
 11
6.018469699315641
 21
5.343588292947863
 31
0.0
  0
LINE
  5
1F6E
330
1ED4
100
AcDbEntity
  8
Dimensions
  6
Continuous
 62
    47
370
    25
100
AcDbLine
 10
5.518469699315642
 20
6.096337479317782
 30
0.0
 11
5.518469699315642
 21
5.343588292947863
 31
0.0
  0
LINE
  5
1F6F
330
1ED4
100
AcDbEntity
  8
Dimensions
  6
Continuous
 62
    47
370
    25
100
AcDbLine
 10
5.920044504694555
 20
5.468588292947863
 30
0.0
 11
5.616894893936728
 21
5.468588292947863
 31
0.0
  0
LINE
  5
1F70
330
1ED4
100
AcDbEntity
  8
Dimensions
  6
Continuous
 62
    47
370
    25
100
AcDbLine
 10
5.518469699315642
 20
5.468588292947863
 30
0.0
 11
5.24065118335115
 21
5.468588292947863
 31
0.0
  0
SOLID
  5
1F71
330
1ED4
100
AcDbEntity
  8
Dimensions
  6
Continuous
 62
    47
100
AcDbTrace
 10
5.920044504694555
 20
5.484992492051378
 30
0.0
 11
5.920044504694555
 21
5.452184093844349
 31
0.0
 12
6.018469699315641
 22
5.468588292947863
 32
0.0
 13
6.018469699315641
 23
5.468588292947863
 33
0.0
  0
SOLID
  5
1F72
330
1ED4
100
AcDbEntity
  8
Dimensions
  6
Continuous
 62
    47
100
AcDbTrace
 10
5.616894893936728
 20
5.484992492051378
 30
0.0
 11
5.616894893936728
 21
5.452184093844349
 31
0.0
 12
5.518469699315642
 22
5.468588292947863
 32
0.0
 13
5.518469699315642
 23
5.468588292947863
 33
0.0
  0
MTEXT
  5
1F73
330
1ED4
100
AcDbEntity
  8
Dimensions
  6
Continuous
 62
    47
370
    25
100
AcDbMText
 10
5.019026327474489
 20
5.468588292947863
 30
0.0
 40
0.1200000047683716
 41
0.0
 71
     5
 72
     1
  1
\A1;0.500
  7
TextStyle8
 73
     1
 44
1.0
  0
POINT
  5
1F74
330
1ED4
100
AcDbEntity
  8
Defpoints
  6
Continuous
 62
     0
100
AcDbPoint
 10
6.018469699315641
 20
5.658837479317775
 30
0.0
  0
POINT
  5
1F75
330
1ED4
100
AcDbEntity
  8
Defpoints
  6
Continuous
 62
     0
100
AcDbPoint
 10
5.518469699315642
 20
6.158837479317782
 30
0.0
  0
POINT
  5
1F76
330
1ED4
100
AcDbEntity
  8
Defpoints
  6
Continuous
 62
     0
100
AcDbPoint
 10
5.518469699315642
 20
5.468588292947863
 30
0.0
  0
ENDBLK
  5
1EE0
330
1ED4
100
AcDbEntity
  8
0
100
AcDbBlockEnd
  0
BLOCK
  5
1F83
330
1F78
100
AcDbEntity
  8
0
100
AcDbBlockBegin
  2
*D49
 70
     1
 10
0.0
 20
0.0
 30
0.0
  3
*D49
  1

  0
LINE
  5
2011
330
1F78
100
AcDbEntity
  8
Dimensions
  6
Continuous
 62
    47
370
    25
100
AcDbLine
 10
6.268469699315641
 20
7.031337479317775
 30
0.0
 11
6.268469699315641
 21
5.791156441697067
 31
0.0
  0
LINE
  5
2012
330
1F78
100
AcDbEntity
  8
Dimensions
  6
Continuous
 62
    47
370
    25
100
AcDbLine
 10
5.768469699315642
 20
7.031337479317775
 30
0.0
 11
5.768469699315642
 21
5.791156441697067
 31
0.0
  0
LINE
  5
2013
330
1F78
100
AcDbEntity
  8
Dimensions
  6
Continuous
 62
    47
370
    25
100
AcDbLine
 10
6.170044504694555
 20
5.916156441697067
 30
0.0
 11
5.866894893936728
 21
5.916156441697067
 31
0.0
  0
LINE
  5
2014
330
1F78
100
AcDbEntity
  8
Dimensions
  6
Continuous
 62
    47
370
    25
100
AcDbLine
 10
5.768469699315642
 20
5.916156441697067
 30
0.0
 11
5.030337454762394
 21
5.916156441697067
 31
0.0
  0
SOLID
  5
2015
330
1F78
100
AcDbEntity
  8
Dimensions
  6
Continuous
 62
    47
100
AcDbTrace
 10
6.170044504694555
 20
5.932560640800581
 30
0.0
 11
6.170044504694555
 21
5.899752242593552
 31
0.0
 12
6.268469699315641
 22
5.916156441697067
 32
0.0
 13
6.268469699315641
 23
5.916156441697067
 33
0.0
  0
SOLID
  5
2016
330
1F78
100
AcDbEntity
  8
Dimensions
  6
Continuous
 62
    47
100
AcDbTrace
 10
5.866894893936728
 20
5.932560640800581
 30
0.0
 11
5.866894893936728
 21
5.899752242593552
 31
0.0
 12
5.768469699315642
 22
5.916156441697067
 32
0.0
 13
5.768469699315642
 23
5.916156441697067
 33
0.0
  0
MTEXT
  5
2017
330
1F78
100
AcDbEntity
  8
Dimensions
  6
Continuous
 62
    47
370
    25
100
AcDbMText
 10
4.808712598885732
 20
5.916156441697067
 30
0.0
 40
0.1200000047683716
 41
0.0
 71
     5
 72
     1
  1
\A1;0.500
  7
TextStyle8
 73
     1
 44
1.0
  0
POINT
  5
2018
330
1F78
100
AcDbEntity
  8
Defpoints
  6
Continuous
 62
     0
100
AcDbPoint
 10
6.268469699315641
 20
7.093837479317775
 30
0.0
  0
POINT
  5
2019
330
1F78
100
AcDbEntity
  8
Defpoints
  6
Continuous
 62
     0
100
AcDbPoint
 10
5.768469699315642
 20
7.093837479317775
 30
0.0
  0
POINT
  5
201A
330
1F78
100
AcDbEntity
  8
Defpoints
  6
Continuous
 62
     0
100
AcDbPoint
 10
5.768469699315642
 20
5.916156441697067
 30
0.0
  0
ENDBLK
  5
1F84
330
1F78
100
AcDbEntity
  8
0
100
AcDbBlockEnd
  0
BLOCK
  5
2022
330
201C
100
AcDbEntity
  8
0
100
AcDbBlockBegin
  2
*D50
 70
     1
 10
0.0
 20
0.0
 30
0.0
  3
*D50
  1

  0
LINE
  5
2082
330
201C
100
AcDbEntity
  8
Dimensions
  6
Continuous
 62
    47
370
    25
100
AcDbLine
 10
5.530649882533411
 20
8.493885127087756
 30
0.0
 11
5.674325293178389
 21
8.493885127087756
 31
0.0
  0
LINE
  5
2083
330
201C
100
AcDbEntity
  8
Dimensions
  6
Continuous
 62
    47
370
    25
100
AcDbLine
 10
5.674325293178389
 20
8.493885127087756
 30
0.0
 11
5.854593770144782
 21
8.616957017668728
 31
0.0
  0
MTEXT
  5
2084
330
201C
100
AcDbEntity
  8
Dimensions
  6
Continuous
 62
    47
370
    25
100
AcDbMText
 10
5.247662132150308
 20
8.493885127087756
 30
0.0
 40
0.1200000047683716
 41
0.0
 71
     5
 72
     1
  1
\A1;\U+22050.200
  7
TextStyle8
 73
     1
 44
1.0
  0
SOLID
  5
2085
330
201C
100
AcDbEntity
  8
Dimensions
  6
Continuous
 62
    47
100
AcDbTrace
 10
5.845344393460592
 20
8.630504961393945
 30
0.0
 11
5.863843146828973
 21
8.603409073943508
 31
0.0
 12
5.935881432496099
 22
8.672453277773865
 32
0.0
 13
5.935881432496099
 23
8.672453277773865
 33
0.0
  0
LINE
  5
2086
330
201C
100
AcDbEntity
  8
Dimensions
  6
Continuous
 62
    47
370
    25
100
AcDbLine
 10
5.928469699315641
 20
8.728837479317773
 30
0.0
 11
6.108469699315641
 21
8.728837479317775
 31
0.0
  0
LINE
  5
2087
330
201C
100
AcDbEntity
  8
Dimensions
  6
Continuous
 62
    47
370
    25
100
AcDbLine
 10
6.018469699315641
 20
8.638837479317775
 30
0.0
 11
6.018469699315639
 21
8.818837479317773
 31
0.0
  0
POINT
  5
2088
330
201C
100
AcDbEntity
  8
Defpoints
  6
Continuous
 62
     0
100
AcDbPoint
 10
5.935881432496099
 20
8.672453277773865
 30
0.0
  0
POINT
  5
2089
330
201C
100
AcDbEntity
  8
Defpoints
  6
Continuous
 62
     0
100
AcDbPoint
 10
6.101057966135185
 20
8.785221680861685
 30
0.0
  0
ENDBLK
  5
2023
330
201C
100
AcDbEntity
  8
0
100
AcDbBlockEnd
  0
BLOCK
  5
2091
330
208B
100
AcDbEntity
  8
0
100
AcDbBlockBegin
  2
*D51
 70
     1
 10
0.0
 20
0.0
 30
0.0
  3
*D51
  1

  0
LINE
  5
20F1
330
208B
100
AcDbEntity
  8
Dimensions
  6
Continuous
 62
    47
370
    25
100
AcDbLine
 10
15.05099064411171
 20
11.31384996561134
 30
0.0
 11
14.90762300974008
 21
11.31384996561134
 31
0.0
  0
LINE
  5
20F2
330
208B
100
AcDbEntity
  8
Dimensions
  6
Continuous
 62
    47
370
    25
100
AcDbLine
 10
14.90762300974008
 20
11.31384996561134
 30
0.0
 11
14.06061346226552
 21
10.60942700495179
 31
0.0
  0
MTEXT
  5
20F3
330
208B
100
AcDbEntity
  8
Dimensions
  6
Continuous
 62
    47
370
    25
100
AcDbMText
 10
15.33428617076819
 20
11.31384996561134
 30
0.0
 40
0.1200000047683716
 41
0.0
 71
     5
 72
     1
  1
\A1;\U+22050.368
  7
TextStyle8
 73
     1
 44
1.0
  0
SOLID
  5
20F4
330
208B
100
AcDbEntity
  8
Dimensions
  6
Continuous
 62
    47
100
AcDbTrace
 10
14.05012421912812
 20
10.62203944034834
 30
0.0
 11
14.07110270540293
 21
10.59681456955525
 31
0.0
 12
13.98493884988623
 22
10.54649154612736
 32
0.0
 13
13.98493884988623
 23
10.54649154612736
 33
0.0
  0
LINE
  5
20F5
330
208B
100
AcDbEntity
  8
Dimensions
  6
Continuous
 62
    47
370
    25
100
AcDbLine
 10
13.75346969931563
 20
10.42883747931777
 30
0.0
 11
13.93346969931563
 21
10.42883747931777
 31
0.0
  0
LINE
  5
20F6
330
208B
100
AcDbEntity
  8
Dimensions
  6
Continuous
 62
    47
370
    25
100
AcDbLine
 10
13.84346969931564
 20
10.33883747931777
 30
0.0
 11
13.84346969931564
 21
10.51883747931777
 31
0.0
  0
POINT
  5
20F7
330
208B
100
AcDbEntity
  8
Defpoints
  6
Continuous
 62
     0
100
AcDbPoint
 10
13.98493884988623
 20
10.54649154612736
 30
0.0
  0
POINT
  5
20F8
330
208B
100
AcDbEntity
  8
Defpoints
  6
Continuous
 62
     0
100
AcDbPoint
 10
13.70200054874505
 20
10.31118341250819
 30
0.0
  0
ENDBLK
  5
2092
330
208B
100
AcDbEntity
  8
0
100
AcDbBlockEnd
  0
BLOCK
  5
2100
330
20FA
100
AcDbEntity
  8
0
100
AcDbBlockBegin
  2
*D52
 70
     1
 10
0.0
 20
0.0
 30
0.0
  3
*D52
  1

  0
LINE
  5
2160
330
20FA
100
AcDbEntity
  8
Dimensions
  6
Continuous
 62
    47
370
    25
100
AcDbLine
 10
5.031302945318453
 20
10.07760402948903
 30
0.0
 11
5.174362803416681
 21
10.07760402948903
 31
0.0
  0
LINE
  5
2161
330
20FA
100
AcDbEntity
  8
Dimensions
  6
Continuous
 62
    47
370
    25
100
AcDbLine
 10
5.174362803416681
 20
10.07760402948903
 30
0.0
 11
6.107943902074406
 21
10.35807873297996
 31
0.0
  0
MTEXT
  5
2162
330
20FA
100
AcDbEntity
  8
Dimensions
  6
Continuous
 62
    47
370
    25
100
AcDbMText
 10
4.747699642388576
 20
10.07760402948903
 30
0.0
 40
0.1200000047683716
 41
0.0
 71
     5
 72
     1
  1
\A1;\U+22050.295
  7
TextStyle8
 73
     1
 44
1.0
  0
SOLID
  5
2163
330
20FA
100
AcDbEntity
  8
Dimensions
  6
Continuous
 62
    47
100
AcDbTrace
 10
6.10322400924265
 20
10.37378925047253
 30
0.0
 11
6.112663794906163
 21
10.34236821548738
 31
0.0
 12
6.202207007029848
 22
10.3863980899705
 32
0.0
 13
6.202207007029848
 23
10.3863980899705
 33
0.0
  0
LINE
  5
2164
330
20FA
100
AcDbEntity
  8
Dimensions
  6
Continuous
 62
    47
370
    25
100
AcDbLine
 10
6.25346969931564
 20
10.42883747931777
 30
0.0
 11
6.433469699315641
 21
10.42883747931777
 31
0.0
  0
LINE
  5
2165
330
20FA
100
AcDbEntity
  8
Dimensions
  6
Continuous
 62
    47
370
    25
100
AcDbLine
 10
6.34346969931564
 20
10.33883747931777
 30
0.0
 11
6.343469699315642
 21
10.51883747931777
 31
0.0
  0
POINT
  5
2166
330
20FA
100
AcDbEntity
  8
Defpoints
  6
Continuous
 62
     0
100
AcDbPoint
 10
6.202207007029848
 20
10.3863980899705
 30
0.0
  0
POINT
  5
2167
330
20FA
100
AcDbEntity
  8
Defpoints
  6
Continuous
 62
     0
100
AcDbPoint
 10
6.484732391601433
 20
10.47127686866504
 30
0.0
  0
ENDBLK
  5
2101
330
20FA
100
AcDbEntity
  8
0
100
AcDbBlockEnd
  0
BLOCK
  5
216F
330
2169
100
AcDbEntity
  8
0
100
AcDbBlockBegin
  2
*D53
 70
     1
 10
0.0
 20
0.0
 30
0.0
  3
*D53
  1

  0
LINE
  5
21CF
330
2169
100
AcDbEntity
  8
Dimensions
  6
Continuous
 62
    47
370
    25
100
AcDbLine
 10
15.04789472159769
 20
12.87795919331229
 30
0.0
 11
14.90437319908944
 21
12.87795919331229
 31
0.0
  0
LINE
  5
21D0
330
2169
100
AcDbEntity
  8
Dimensions
  6
Continuous
 62
    47
370
    25
100
AcDbLine
 10
14.90437319908944
 20
12.87795919331229
 30
0.0
 11
14.50199015147024
 21
12.38719864470327
 31
0.0
  0
MTEXT
  5
21D1
330
2169
100
AcDbEntity
  8
Dimensions
  6
Continuous
 62
    47
370
    25
100
AcDbMText
 10
15.33103636011749
 20
12.87795919331229
 30
0.0
 40
0.1200000047683716
 41
0.0
 71
     5
 72
     1
  1
\A1;\U+22050.136
  7
TextStyle8
 73
     1
 44
1.0
  0
SOLID
  5
21D2
330
2169
100
AcDbEntity
  8
Dimensions
  6
Continuous
 62
    47
100
AcDbTrace
 10
14.48930479810573
 20
12.39759958496101
 30
0.0
 11
14.51467550483476
 21
12.37679770444552
 31
0.0
 12
14.43958450992379
 22
12.31108652451618
 32
0.0
 13
14.43958450992379
 23
12.31108652451618
 33
0.0
  0
LINE
  5
21D3
330
2169
100
AcDbEntity
  8
Dimensions
  6
Continuous
 62
    47
370
    25
100
AcDbLine
 10
14.30646969931563
 20
12.2585021817303
 30
0.0
 11
14.48646969931562
 21
12.2585021817303
 31
0.0
  0
LINE
  5
21D4
330
2169
100
AcDbEntity
  8
Dimensions
  6
Continuous
 62
    47
370
    25
100
AcDbLine
 10
14.39646969931563
 20
12.1685021817303
 30
0.0
 11
14.39646969931563
 21
12.3485021817303
 31
0.0
  0
POINT
  5
21D5
330
2169
100
AcDbEntity
  8
Defpoints
  6
Continuous
 62
     0
100
AcDbPoint
 10
14.43958450992379
 20
12.31108652451618
 30
0.0
  0
POINT
  5
21D6
330
2169
100
AcDbEntity
  8
Defpoints
  6
Continuous
 62
     0
100
AcDbPoint
 10
14.35335488870747
 20
12.20591783894442
 30
0.0
  0
ENDBLK
  5
2170
330
2169
100
AcDbEntity
  8
0
100
AcDbBlockEnd
  0
BLOCK
  5
21DE
330
21D8
100
AcDbEntity
  8
0
100
AcDbBlockBegin
  2
*D54
 70
     1
 10
0.0
 20
0.0
 30
0.0
  3
*D54
  1

  0
LINE
  5
223E
330
21D8
100
AcDbEntity
  8
Dimensions
  6
Continuous
 62
    47
370
    25
100
AcDbLine
 10
5.186971445833368
 20
12.07944920391165
 30
0.0
 11
5.647071107947555
 21
12.07944920391165
 31
0.0
  0
LINE
  5
223F
330
21D8
100
AcDbEntity
  8
Dimensions
  6
Continuous
 62
    47
370
    25
100
AcDbLine
 10
5.647071107947555
 20
12.07944920391165
 30
0.0
 11
6.13248164343862
 21
11.91034161436272
 31
0.0
  0
MTEXT
  5
2240
330
21D8
100
AcDbEntity
  8
Dimensions
  6
Continuous
 62
    47
370
    25
100
AcDbMText
 10
4.903983695450266
 20
12.07944920391165
 30
0.0
 40
0.1200000047683716
 41
0.0
 71
     5
 72
     1
  1
\A1;\U+22050.250
  7
TextStyle8
 73
     1
 44
1.0
  0
SOLID
  5
2241
330
21D8
100
AcDbEntity
  8
Dimensions
  6
Continuous
 62
    47
100
AcDbTrace
 10
6.137878422742109
 20
11.92583266085342
 30
0.0
 11
6.127084864135133
 21
11.89485056787201
 31
0.0
 12
6.225427922382849
 22
11.87796093854178
 32
0.0
 13
6.225427922382849
 23
11.87796093854178
 33
0.0
  0
LINE
  5
2242
330
21D8
100
AcDbEntity
  8
Dimensions
  6
Continuous
 62
    47
370
    25
100
AcDbLine
 10
6.25346969931564
 20
11.83683747931777
 30
0.0
 11
6.433469699315638
 21
11.83683747931777
 31
0.0
  0
LINE
  5
2243
330
21D8
100
AcDbEntity
  8
Dimensions
  6
Continuous
 62
    47
370
    25
100
AcDbLine
 10
6.343469699315638
 20
11.74683747931777
 30
0.0
 11
6.343469699315638
 21
11.92683747931777
 31
0.0
  0
POINT
  5
2244
330
21D8
100
AcDbEntity
  8
Defpoints
  6
Continuous
 62
     0
100
AcDbPoint
 10
6.225427922382849
 20
11.87796093854178
 30
0.0
  0
POINT
  5
2245
330
21D8
100
AcDbEntity
  8
Defpoints
  6
Continuous
 62
     0
100
AcDbPoint
 10
6.461511476248428
 20
11.79571402009375
 30
0.0
  0
ENDBLK
  5
21DF
330
21D8
100
AcDbEntity
  8
0
100
AcDbBlockEnd
  0
BLOCK
  5
224D
330
2247
100
AcDbEntity
  8
0
100
AcDbBlockBegin
  2
*D55
 70
     1
 10
0.0
 20
0.0
 30
0.0
  3
*D55
  1

  0
LINE
  5
22AD
330
2247
100
AcDbEntity
  8
Dimensions
  6
Continuous
 62
    47
370
    25
100
AcDbLine
 10
5.195426392164225
 20
11.34860955259581
 30
0.0
 11
5.660605175332378
 21
11.34860955259581
 31
0.0
  0
LINE
  5
22AE
330
2247
100
AcDbEntity
  8
Dimensions
  6
Continuous
 62
    47
370
    25
100
AcDbLine
 10
5.660605175332378
 20
11.34860955259581
 30
0.0
 11
6.167918815300913
 21
11.08132772194945
 31
0.0
  0
MTEXT
  5
22AF
330
2247
100
AcDbEntity
  8
Dimensions
  6
Continuous
 62
    47
370
    25
100
AcDbMText
 10
4.912438641781124
 20
11.34860955259581
 30
0.0
 40
0.1200000047683716
 41
0.0
 71
     5
 72
     1
  1
\A1;\U+22050.200
  7
TextStyle8
 73
     1
 44
1.0
  0
SOLID
  5
22B0
330
2247
100
AcDbEntity
  8
Dimensions
  6
Continuous
 62
    47
100
AcDbTrace
 10
6.175565164637546
 20
11.09584085703632
 30
0.0
 11
6.16027246596428
 21
11.06681458686257
 31
0.0
 12
6.25499762582217
 22
11.03544962592965
 32
0.0
 13
6.25499762582217
 23
11.03544962592965
 33
0.0
  0
LINE
  5
22B1
330
2247
100
AcDbEntity
  8
Dimensions
  6
Continuous
 62
    47
370
    25
100
AcDbLine
 10
6.25346969931564
 20
10.98883747931778
 30
0.0
 11
6.43346969931564
 21
10.98883747931778
 31
0.0
  0
LINE
  5
22B2
330
2247
100
AcDbEntity
  8
Dimensions
  6
Continuous
 62
    47
370
    25
100
AcDbLine
 10
6.343469699315639
 20
10.89883747931778
 30
0.0
 11
6.343469699315639
 21
11.07883747931778
 31
0.0
  0
POINT
  5
22B3
330
2247
100
AcDbEntity
  8
Defpoints
  6
Continuous
 62
     0
100
AcDbPoint
 10
6.25499762582217
 20
11.03544962592965
 30
0.0
  0
POINT
  5
22B4
330
2247
100
AcDbEntity
  8
Defpoints
  6
Continuous
 62
     0
100
AcDbPoint
 10
6.431941772809109
 20
10.94222533270591
 30
0.0
  0
ENDBLK
  5
224E
330
2247
100
AcDbEntity
  8
0
100
AcDbBlockEnd
  0
BLOCK
  5
22BC
330
22B6
100
AcDbEntity
  8
0
100
AcDbBlockBegin
  2
*D56
 70
     1
 10
0.0
 20
0.0
 30
0.0
  3
*D56
  1

  0
LINE
  5
231C
330
22B6
100
AcDbEntity
  8
Dimensions
  6
Continuous
 62
    47
370
    25
100
AcDbLine
 10
5.030687392771683
 20
9.746777652216875
 30
0.0
 11
5.174362803416666
 21
9.746777652216875
 31
0.0
  0
LINE
  5
231D
330
22B6
100
AcDbEntity
  8
Dimensions
  6
Continuous
 62
    47
370
    25
100
AcDbLine
 10
5.174362803416666
 20
9.746777652216875
 30
0.0
 11
6.151998586091869
 21
9.480908302830235
 31
0.0
  0
MTEXT
  5
231E
330
22B6
100
AcDbEntity
  8
Dimensions
  6
Continuous
 62
    47
370
    25
100
AcDbMText
 10
4.74769964238858
 20
9.746777652216875
 30
0.0
 40
0.1200000047683716
 41
0.0
 71
     5
 72
     1
  1
\A1;\U+22050.200
  7
TextStyle8
 73
     1
 44
1.0
  0
SOLID
  5
231F
330
22B6
100
AcDbEntity
  8
Dimensions
  6
Continuous
 62
    47
100
AcDbTrace
 10
6.156303382960096
 20
9.496737594417384
 30
0.0
 11
6.147693789223643
 21
9.465079011243084
 31
0.0
 12
6.246974335614773
 22
9.45507952162087
 32
0.0
 13
6.246974335614773
 23
9.45507952162087
 33
0.0
  0
LINE
  5
2320
330
22B6
100
AcDbEntity
  8
Dimensions
  6
Continuous
 62
    47
370
    25
100
AcDbLine
 10
6.253469699315642
 20
9.428837479317781
 30
0.0
 11
6.433469699315641
 21
9.428837479317781
 31
0.0
  0
LINE
  5
2321
330
22B6
100
AcDbEntity
  8
Dimensions
  6
Continuous
 62
    47
370
    25
100
AcDbLine
 10
6.343469699315641
 20
9.338837479317781
 30
0.0
 11
6.343469699315641
 21
9.518837479317781
 31
0.0
  0
POINT
  5
2322
330
22B6
100
AcDbEntity
  8
Defpoints
  6
Continuous
 62
     0
100
AcDbPoint
 10
6.246974335614773
 20
9.45507952162087
 30
0.0
  0
POINT
  5
2323
330
22B6
100
AcDbEntity
  8
Defpoints
  6
Continuous
 62
     0
100
AcDbPoint
 10
6.439965063016509
 20
9.40259543701469
 30
0.0
  0
ENDBLK
  5
22BD
330
22B6
100
AcDbEntity
  8
0
100
AcDbBlockEnd
  0
BLOCK
  5
232B
330
2325
100
AcDbEntity
  8
0
100
AcDbBlockBegin
  2
*D57
 70
     1
 10
0.0
 20
0.0
 30
0.0
  3
*D57
  1

  0
LINE
  5
238B
330
2325
100
AcDbEntity
  8
Dimensions
  6
Continuous
 62
    47
370
    25
100
AcDbLine
 10
9.505741779821134
 20
12.98539376656543
 30
0.0
 11
9.649224830295276
 21
12.98539376656543
 31
0.0
  0
LINE
  5
238C
330
2325
100
AcDbEntity
  8
Dimensions
  6
Continuous
 62
    47
370
    25
100
AcDbLine
 10
9.649224830295276
 20
12.98539376656543
 30
0.0
 11
10.04263568512904
 21
10.72137888528016
 31
0.0
  0
MTEXT
  5
238D
330
2325
100
AcDbEntity
  8
Dimensions
  6
Continuous
 62
    47
370
    25
100
AcDbMText
 10
9.222561669267166
 20
12.98539376656543
 30
0.0
 40
0.1200000047683716
 41
0.0
 71
     5
 72
     1
  1
\A1;\U+22050.397
  7
TextStyle8
 73
     1
 44
1.0
  0
SOLID
  5
238E
330
2325
100
AcDbEntity
  8
Dimensions
  6
Continuous
 62
    47
100
AcDbTrace
 10
10.05879769346098
 20
10.72418730741831
 30
0.0
 11
10.0264736767971
 21
10.71857046314201
 31
0.0
 12
10.05948621795794
 22
10.62440683528852
 32
0.0
 13
10.05948621795794
 23
10.62440683528852
 33
0.0
  0
LINE
  5
238F
330
2325
100
AcDbEntity
  8
Dimensions
  6
Continuous
 62
    47
370
    25
100
AcDbLine
 10
10.00346969931565
 20
10.42883747931778
 30
0.0
 11
10.18346969931565
 21
10.42883747931779
 31
0.0
  0
LINE
  5
2390
330
2325
100
AcDbEntity
  8
Dimensions
  6
Continuous
 62
    47
370
    25
100
AcDbLine
 10
10.09346969931564
 20
10.33883747931778
 30
0.0
 11
10.09346969931564
 21
10.51883747931778
 31
0.0
  0
POINT
  5
2391
330
2325
100
AcDbEntity
  8
Defpoints
  6
Continuous
 62
     0
100
AcDbPoint
 10
10.05948621795794
 20
10.62440683528852
 30
0.0
  0
POINT
  5
2392
330
2325
100
AcDbEntity
  8
Defpoints
  6
Continuous
 62
     0
100
AcDbPoint
 10
10.12745318067336
 20
10.23326812334705
 30
0.0
  0
ENDBLK
  5
232C
330
2325
100
AcDbEntity
  8
0
100
AcDbBlockEnd
  0
BLOCK
  5
239A
330
2394
100
AcDbEntity
  8
0
100
AcDbBlockBegin
  2
*D58
 70
     1
 10
0.0
 20
0.0
 30
0.0
  3
*D58
  1

  0
LINE
  5
23FA
330
2394
100
AcDbEntity
  8
Dimensions
  6
Continuous
 62
    47
370
    25
100
AcDbLine
 10
6.935465646975332
 20
12.84609844981926
 30
0.0
 11
6.689199365044804
 21
12.84609844981926
 31
0.0
  0
LINE
  5
23FB
330
2394
100
AcDbEntity
  8
Dimensions
  6
Continuous
 62
    47
370
    25
100
AcDbLine
 10
6.689199365044804
 20
12.84609844981926
 30
0.0
 11
7.761064360644742
 21
10.69460692355885
 31
0.0
  0
MTEXT
  5
23FC
330
2394
100
AcDbEntity
  8
Dimensions
  6
Continuous
 62
    47
370
    25
100
AcDbMText
 10
7.218645757529303
 20
12.84609844981925
 30
0.0
 40
0.1200000047683716
 41
0.0
 71
     5
 72
     1
  1
\A1;\U+22050.397
  7
TextStyle8
 73
     1
 44
1.0
  0
SOLID
  5
23FD
330
2394
100
AcDbEntity
  8
Dimensions
  6
Continuous
 62
    47
100
AcDbTrace
 10
7.775747300853049
 20
10.70192190920935
 30
0.0
 11
7.746381420436438
 21
10.68729193790835
 31
0.0
 12
7.804954274547752
 22
10.60650928230902
 32
0.0
 13
7.804954274547752
 23
10.60650928230902
 33
0.0
  0
LINE
  5
23FE
330
2394
100
AcDbEntity
  8
Dimensions
  6
Continuous
 62
    47
370
    25
100
AcDbLine
 10
7.803469699315639
 20
10.42883747931777
 30
0.0
 11
7.983469699315638
 21
10.42883747931777
 31
0.0
  0
LINE
  5
23FF
330
2394
100
AcDbEntity
  8
Dimensions
  6
Continuous
 62
    47
370
    25
100
AcDbLine
 10
7.893469699315639
 20
10.33883747931777
 30
0.0
 11
7.893469699315639
 21
10.51883747931777
 31
0.0
  0
POINT
  5
2400
330
2394
100
AcDbEntity
  8
Defpoints
  6
Continuous
 62
     0
100
AcDbPoint
 10
7.804954274547752
 20
10.60650928230902
 30
0.0
  0
POINT
  5
2401
330
2394
100
AcDbEntity
  8
Defpoints
  6
Continuous
 62
     0
100
AcDbPoint
 10
7.981985124083525
 20
10.25116567632652
 30
0.0
  0
ENDBLK
  5
239B
330
2394
100
AcDbEntity
  8
0
100
AcDbBlockEnd
  0
BLOCK
  5
2409
330
2403
100
AcDbEntity
  8
0
100
AcDbBlockBegin
  2
*D59
 70
     1
 10
0.0
 20
0.0
 30
0.0
  3
*D59
  1

  0
LINE
  5
2469
330
2403
100
AcDbEntity
  8
Dimensions
  6
Continuous
 62
    47
370
    25
100
AcDbLine
 10
13.31906647174625
 20
13.17692482709142
 30
0.0
 11
13.46243410611786
 21
13.17692482709142
 31
0.0
  0
LINE
  5
246A
330
2403
100
AcDbEntity
  8
Dimensions
  6
Continuous
 62
    47
370
    25
100
AcDbLine
 10
13.46243410611786
 20
13.17692482709142
 30
0.0
 11
13.64548651886012
 21
12.1151567293709
 31
0.0
  0
MTEXT
  5
246B
330
2403
100
AcDbEntity
  8
Dimensions
  6
Continuous
 62
    47
370
    25
100
AcDbMText
 10
13.03577094508976
 20
13.17692482709142
 30
0.0
 40
0.1200000047683716
 41
0.0
 71
     5
 72
     1
  1
\A1;\U+22050.368
  7
TextStyle8
 73
     1
 44
1.0
  0
SOLID
  5
246C
330
2403
100
AcDbEntity
  8
Dimensions
  6
Continuous
 62
    47
100
AcDbTrace
 10
13.66165223098201
 20
12.11794375284049
 30
0.0
 11
13.62932080673824
 21
12.11236970590131
 31
0.0
 12
13.66220865967766
 22
12.01816245663958
 32
0.0
 13
13.66220865967766
 23
12.01816245663958
 33
0.0
  0
LINE
  5
246D
330
2403
100
AcDbEntity
  8
Dimensions
  6
Continuous
 62
    47
370
    25
100
AcDbLine
 10
13.60346969931564
 20
11.83683747931778
 30
0.0
 11
13.78346969931564
 21
11.83683747931778
 31
0.0
  0
LINE
  5
246E
330
2403
100
AcDbEntity
  8
Dimensions
  6
Continuous
 62
    47
370
    25
100
AcDbLine
 10
13.69346969931564
 20
11.74683747931778
 30
0.0
 11
13.69346969931565
 21
11.92683747931778
 31
0.0
  0
POINT
  5
246F
330
2403
100
AcDbEntity
  8
Defpoints
  6
Continuous
 62
     0
100
AcDbPoint
 10
13.66220865967766
 20
12.01816245663958
 30
0.0
  0
POINT
  5
2470
330
2403
100
AcDbEntity
  8
Defpoints
  6
Continuous
 62
     0
100
AcDbPoint
 10
13.72473073895363
 20
11.65551250199598
 30
0.0
  0
ENDBLK
  5
240A
330
2403
100
AcDbEntity
  8
0
100
AcDbBlockEnd
  0
BLOCK
  5
247D
330
2472
100
AcDbEntity
  8
0
100
AcDbBlockBegin
  2
*D60
 70
     1
 10
0.0
 20
0.0
 30
0.0
  3
*D60
  1

  0
LINE
  5
2511
330
2472
100
AcDbEntity
  8
Dimensions
  6
Continuous
 62
    47
370
    25
100
AcDbLine
 10
5.705969699315642
 20
7.343837479317774
 30
0.0
 11
4.915869626331287
 21
7.343837479317774
 31
0.0
  0
LINE
  5
2512
330
2472
100
AcDbEntity
  8
Dimensions
  6
Continuous
 62
    47
370
    25
100
AcDbLine
 10
5.705969699315642
 20
7.093837479317775
 30
0.0
 11
4.915869626331287
 21
7.093837479317775
 31
0.0
  0
LINE
  5
2513
330
2472
100
AcDbEntity
  8
Dimensions
  6
Continuous
 62
    47
370
    25
100
AcDbLine
 10
5.040869626331287
 20
7.44226267393886
 30
0.0
 11
5.040869626331287
 21
7.540687868559946
 31
0.0
  0
LINE
  5
2514
330
2472
100
AcDbEntity
  8
Dimensions
  6
Continuous
 62
    47
370
    25
100
AcDbLine
 10
5.040869626331287
 20
6.995412284696689
 30
0.0
 11
5.040869626331287
 21
6.79812449881992
 31
0.0
  0
SOLID
  5
2515
330
2472
100
AcDbEntity
  8
Dimensions
  6
Continuous
 62
    47
100
AcDbTrace
 10
5.024465427227773
 20
7.44226267393886
 30
0.0
 11
5.057273825434802
 21
7.44226267393886
 31
0.0
 12
5.040869626331287
 22
7.343837479317774
 32
0.0
 13
5.040869626331287
 23
7.343837479317774
 33
0.0
  0
SOLID
  5
2516
330
2472
100
AcDbEntity
  8
Dimensions
  6
Continuous
 62
    47
100
AcDbTrace
 10
5.024465427227773
 20
6.995412284696689
 30
0.0
 11
5.057273825434802
 21
6.995412284696689
 31
0.0
 12
5.040869626331287
 22
7.093837479317775
 32
0.0
 13
5.040869626331287
 23
7.093837479317775
 33
0.0
  0
MTEXT
  5
2517
330
2472
100
AcDbEntity
  8
Dimensions
  6
Continuous
 62
    47
370
    25
100
AcDbMText
 10
5.040869626331286
 20
6.57649964294326
 30
0.0
 40
0.1200000047683716
 41
0.0
 71
     5
 72
     1
  1
\A1;0.250
  7
TextStyle8
 11
0.0000000000000001
 21
1.0
 31
0.0
 73
     1
 44
1.0
  0
POINT
  5
2518
330
2472
100
AcDbEntity
  8
Defpoints
  6
Continuous
 62
     0
100
AcDbPoint
 10
5.768469699315642
 20
7.343837479317774
 30
0.0
  0
POINT
  5
2519
330
2472
100
AcDbEntity
  8
Defpoints
  6
Continuous
 62
     0
100
AcDbPoint
 10
5.768469699315642
 20
7.093837479317775
 30
0.0
  0
POINT
  5
251A
330
2472
100
AcDbEntity
  8
Defpoints
  6
Continuous
 62
     0
100
AcDbPoint
 10
5.040869626331287
 20
7.093837479317775
 30
0.0
  0
ENDBLK
  5
247E
330
2472
100
AcDbEntity
  8
0
100
AcDbBlockEnd
  0
BLOCK
  5
2527
330
251C
100
AcDbEntity
  8
0
100
AcDbBlockBegin
  2
*D61
 70
     1
 10
0.0
 20
0.0
 30
0.0
  3
*D61
  1

  0
LINE
  5
25B5
330
251C
100
AcDbEntity
  8
Dimensions
  6
Continuous
 62
    47
370
    25
100
AcDbLine
 10
10.09346969931564
 20
6.434337479317784
 30
0.0
 11
10.09346969931564
 21
3.235709993348586
 31
0.0
  0
LINE
  5
25B6
330
251C
100
AcDbEntity
  8
Dimensions
  6
Continuous
 62
    47
370
    25
100
AcDbLine
 10
5.518469699315642
 20
6.096337479317782
 30
0.0
 11
5.518469699315642
 21
3.235709993348586
 31
0.0
  0
LINE
  5
25B7
330
251C
100
AcDbEntity
  8
Dimensions
  6
Continuous
 62
    47
370
    25
100
AcDbLine
 10
9.995044504694556
 20
3.360709993348586
 30
0.0
 11
8.115930385582959
 21
3.360709993348586
 31
0.0
  0
LINE
  5
25B8
330
251C
100
AcDbEntity
  8
Dimensions
  6
Continuous
 62
    47
370
    25
100
AcDbLine
 10
5.616894893936728
 20
3.360709993348586
 30
0.0
 11
7.666909868703639
 21
3.360709993348586
 31
0.0
  0
SOLID
  5
25B9
330
251C
100
AcDbEntity
  8
Dimensions
  6
Continuous
 62
    47
100
AcDbTrace
 10
9.995044504694556
 20
3.3771141924521
 30
0.0
 11
9.995044504694556
 21
3.344305794245072
 31
0.0
 12
10.09346969931564
 22
3.360709993348586
 32
0.0
 13
10.09346969931564
 23
3.360709993348586
 33
0.0
  0
SOLID
  5
25BA
330
251C
100
AcDbEntity
  8
Dimensions
  6
Continuous
 62
    47
100
AcDbTrace
 10
5.616894893936728
 20
3.3771141924521
 30
0.0
 11
5.616894893936728
 21
3.344305794245072
 31
0.0
 12
5.518469699315642
 22
3.360709993348586
 32
0.0
 13
5.518469699315642
 23
3.360709993348586
 33
0.0
  0
MTEXT
  5
25BB
330
251C
100
AcDbEntity
  8
Dimensions
  6
Continuous
 62
    47
370
    25
100
AcDbMText
 10
7.891420127143299
 20
3.360709993348586
 30
0.0
 40
0.1200000047683716
 41
0.0
 71
     5
 72
     1
  1
\A1;4.575
  7
TextStyle8
 73
     1
 44
1.0
  0
POINT
  5
25BC
330
251C
100
AcDbEntity
  8
Defpoints
  6
Continuous
 62
     0
100
AcDbPoint
 10
10.09346969931564
 20
6.496837479317784
 30
0.0
  0
POINT
  5
25BD
330
251C
100
AcDbEntity
  8
Defpoints
  6
Continuous
 62
     0
100
AcDbPoint
 10
5.518469699315642
 20
6.158837479317782
 30
0.0
  0
POINT
  5
25BE
330
251C
100
AcDbEntity
  8
Defpoints
  6
Continuous
 62
     0
100
AcDbPoint
 10
5.518469699315642
 20
3.360709993348586
 30
0.0
  0
ENDBLK
  5
2528
330
251C
100
AcDbEntity
  8
0
100
AcDbBlockEnd
  0
BLOCK
  5
25CB
330
25C0
100
AcDbEntity
  8
0
100
AcDbBlockBegin
  2
*D62
 70
     1
 10
0.0
 20
0.0
 30
0.0
  3
*D62
  1

  0
LINE
  5
2659
330
25C0
100
AcDbEntity
  8
Dimensions
  6
Continuous
 62
    47
370
    25
100
AcDbLine
 10
7.893469699315639
 20
10.49133747931777
 30
0.0
 11
7.893469699315639
 21
13.71981077732994
 31
0.0
  0
LINE
  5
265A
330
25C0
100
AcDbEntity
  8
Dimensions
  6
Continuous
 62
    47
370
    25
100
AcDbLine
 10
5.51846969931564
 20
12.64933747931778
 30
0.0
 11
5.51846969931564
 21
13.71981077732994
 31
0.0
  0
LINE
  5
265B
330
25C0
100
AcDbEntity
  8
Dimensions
  6
Continuous
 62
    47
370
    25
100
AcDbLine
 10
7.795044504694553
 20
13.59481077732994
 30
0.0
 11
6.982049232328481
 21
13.59481077732994
 31
0.0
  0
LINE
  5
265C
330
25C0
100
AcDbEntity
  8
Dimensions
  6
Continuous
 62
    47
370
    25
100
AcDbLine
 10
5.616894893936726
 20
13.59481077732994
 30
0.0
 11
6.535644813772947
 21
13.59481077732994
 31
0.0
  0
SOLID
  5
265D
330
25C0
100
AcDbEntity
  8
Dimensions
  6
Continuous
 62
    47
100
AcDbTrace
 10
7.795044504694553
 20
13.61121497643346
 30
0.0
 11
7.795044504694553
 21
13.57840657822643
 31
0.0
 12
7.893469699315639
 22
13.59481077732994
 32
0.0
 13
7.893469699315639
 23
13.59481077732994
 33
0.0
  0
SOLID
  5
265E
330
25C0
100
AcDbEntity
  8
Dimensions
  6
Continuous
 62
    47
100
AcDbTrace
 10
5.616894893936726
 20
13.61121497643346
 30
0.0
 11
5.616894893936726
 21
13.57840657822643
 31
0.0
 12
5.51846969931564
 22
13.59481077732994
 32
0.0
 13
5.51846969931564
 23
13.59481077732994
 33
0.0
  0
MTEXT
  5
265F
330
25C0
100
AcDbEntity
  8
Dimensions
  6
Continuous
 62
    47
370
    25
100
AcDbMText
 10
6.758847023050714
 20
13.59481077732994
 30
0.0
 40
0.1200000047683716
 41
0.0
 71
     5
 72
     1
  1
\A1;2.375
  7
TextStyle8
 73
     1
 44
1.0
  0
POINT
  5
2660
330
25C0
100
AcDbEntity
  8
Defpoints
  6
Continuous
 62
     0
100
AcDbPoint
 10
7.893469699315639
 20
10.42883747931777
 30
0.0
  0
POINT
  5
2661
330
25C0
100
AcDbEntity
  8
Defpoints
  6
Continuous
 62
     0
100
AcDbPoint
 10
5.51846969931564
 20
12.58683747931778
 30
0.0
  0
POINT
  5
2662
330
25C0
100
AcDbEntity
  8
Defpoints
  6
Continuous
 62
     0
100
AcDbPoint
 10
5.51846969931564
 20
13.59481077732994
 30
0.0
  0
ENDBLK
  5
25CC
330
25C0
100
AcDbEntity
  8
0
100
AcDbBlockEnd
  0
BLOCK
  5
266F
330
2664
100
AcDbEntity
  8
0
100
AcDbBlockBegin
  2
*D63
 70
     1
 10
0.0
 20
0.0
 30
0.0
  3
*D63
  1

  0
LINE
  5
26FD
330
2664
100
AcDbEntity
  8
Dimensions
  6
Continuous
 62
    47
370
    25
100
AcDbLine
 10
10.09346969931564
 20
10.49133747931777
 30
0.0
 11
10.09346969931564
 21
14.52286110136502
 31
0.0
  0
LINE
  5
26FE
330
2664
100
AcDbEntity
  8
Dimensions
  6
Continuous
 62
    47
370
    25
100
AcDbLine
 10
5.51846969931564
 20
12.64933747931778
 30
0.0
 11
5.51846969931564
 21
14.52286110136502
 31
0.0
  0
LINE
  5
26FF
330
2664
100
AcDbEntity
  8
Dimensions
  6
Continuous
 62
    47
370
    25
100
AcDbLine
 10
9.995044504694552
 20
14.39786110136502
 30
0.0
 11
8.271838954599379
 21
14.39786110136502
 31
0.0
  0
LINE
  5
2700
330
2664
100
AcDbEntity
  8
Dimensions
  6
Continuous
 62
    47
370
    25
100
AcDbLine
 10
5.616894893936726
 20
14.39786110136502
 30
0.0
 11
7.82281843772006
 21
14.39786110136502
 31
0.0
  0
SOLID
  5
2701
330
2664
100
AcDbEntity
  8
Dimensions
  6
Continuous
 62
    47
100
AcDbTrace
 10
9.995044504694552
 20
14.41426530046854
 30
0.0
 11
9.995044504694552
 21
14.38145690226151
 31
0.0
 12
10.09346969931564
 22
14.39786110136502
 32
0.0
 13
10.09346969931564
 23
14.39786110136502
 33
0.0
  0
SOLID
  5
2702
330
2664
100
AcDbEntity
  8
Dimensions
  6
Continuous
 62
    47
100
AcDbTrace
 10
5.616894893936726
 20
14.41426530046854
 30
0.0
 11
5.616894893936726
 21
14.38145690226151
 31
0.0
 12
5.51846969931564
 22
14.39786110136502
 32
0.0
 13
5.51846969931564
 23
14.39786110136502
 33
0.0
  0
MTEXT
  5
2703
330
2664
100
AcDbEntity
  8
Dimensions
  6
Continuous
 62
    47
370
    25
100
AcDbMText
 10
8.04732869615972
 20
14.39786110136502
 30
0.0
 40
0.1200000047683716
 41
0.0
 71
     5
 72
     1
  1
\A1;4.575
  7
TextStyle8
 73
     1
 44
1.0
  0
POINT
  5
2704
330
2664
100
AcDbEntity
  8
Defpoints
  6
Continuous
 62
     0
100
AcDbPoint
 10
10.09346969931564
 20
10.42883747931778
 30
0.0
  0
POINT
  5
2705
330
2664
100
AcDbEntity
  8
Defpoints
  6
Continuous
 62
     0
100
AcDbPoint
 10
5.51846969931564
 20
12.58683747931778
 30
0.0
  0
POINT
  5
2706
330
2664
100
AcDbEntity
  8
Defpoints
  6
Continuous
 62
     0
100
AcDbPoint
 10
5.51846969931564
 20
14.39786110136502
 30
0.0
  0
ENDBLK
  5
2670
330
2664
100
AcDbEntity
  8
0
100
AcDbBlockEnd
  0
BLOCK
  5
2713
330
2708
100
AcDbEntity
  8
0
100
AcDbBlockBegin
  2
*D64
 70
     1
 10
0.0
 20
0.0
 30
0.0
  3
*D64
  1

  0
LINE
  5
27A1
330
2708
100
AcDbEntity
  8
Dimensions
  6
Continuous
 62
    47
370
    25
100
AcDbLine
 10
13.75596969931564
 20
11.83683747931778
 30
0.0
 11
18.13411030507999
 21
11.83683747931778
 31
0.0
  0
LINE
  5
27A2
330
2708
100
AcDbEntity
  8
Dimensions
  6
Continuous
 62
    47
370
    25
100
AcDbLine
 10
14.73096969931564
 20
6.158837479317781
 30
0.0
 11
18.13411030507998
 21
6.15883747931778
 31
0.0
  0
LINE
  5
27A3
330
2708
100
AcDbEntity
  8
Dimensions
  6
Continuous
 62
    47
370
    25
100
AcDbLine
 10
18.00911030507998
 20
11.73841228469669
 30
0.0
 11
18.00911030507998
 21
11.07958259992665
 31
0.0
  0
LINE
  5
27A4
330
2708
100
AcDbEntity
  8
Dimensions
  6
Continuous
 62
    47
370
    25
100
AcDbLine
 10
18.00911030507998
 20
6.257262673938866
 30
0.0
 11
18.00911030507998
 21
10.63571733562655
 31
0.0
  0
SOLID
  5
27A5
330
2708
100
AcDbEntity
  8
Dimensions
  6
Continuous
 62
    47
100
AcDbTrace
 10
17.99270610597647
 20
11.73841228469669
 30
0.0
 11
18.0255145041835
 21
11.73841228469669
 31
0.0
 12
18.00911030507998
 22
11.83683747931778
 32
0.0
 13
18.00911030507998
 23
11.83683747931778
 33
0.0
  0
SOLID
  5
27A6
330
2708
100
AcDbEntity
  8
Dimensions
  6
Continuous
 62
    47
100
AcDbTrace
 10
17.99270610597647
 20
6.257262673938867
 30
0.0
 11
18.0255145041835
 21
6.257262673938866
 31
0.0
 12
18.00911030507998
 22
6.15883747931778
 32
0.0
 13
18.00911030507998
 23
6.15883747931778
 33
0.0
  0
MTEXT
  5
27A7
330
2708
100
AcDbEntity
  8
Dimensions
  6
Continuous
 62
    47
370
    25
100
AcDbMText
 10
18.00911030507998
 20
10.8576499677766
 30
0.0
 40
0.1200000047683716
 41
0.0
 71
     5
 72
     1
  1
\A1;5.678
  7
TextStyle8
 11
0.0000000000000001
 21
1.0
 31
0.0
 73
     1
 44
1.0
  0
POINT
  5
27A8
330
2708
100
AcDbEntity
  8
Defpoints
  6
Continuous
 62
     0
100
AcDbPoint
 10
13.69346969931564
 20
11.83683747931778
 30
0.0
  0
POINT
  5
27A9
330
2708
100
AcDbEntity
  8
Defpoints
  6
Continuous
 62
     0
100
AcDbPoint
 10
14.66846969931564
 20
6.158837479317781
 30
0.0
  0
POINT
  5
27AA
330
2708
100
AcDbEntity
  8
Defpoints
  6
Continuous
 62
     0
100
AcDbPoint
 10
18.00911030507998
 20
6.15883747931778
 30
0.0
  0
ENDBLK
  5
2714
330
2708
100
AcDbEntity
  8
0
100
AcDbBlockEnd
  0
BLOCK
  5
27B7
330
27AC
100
AcDbEntity
  8
0
100
AcDbBlockBegin
  2
*D65
 70
     1
 10
0.0
 20
0.0
 30
0.0
  3
*D65
  1

  0
LINE
  5
2845
330
27AC
100
AcDbEntity
  8
Dimensions
  6
Continuous
 62
    47
370
    25
100
AcDbLine
 10
5.955969699315641
 20
7.698837479317777
 30
0.0
 11
3.064404550248738
 21
7.698837479317777
 31
0.0
  0
LINE
  5
2846
330
27AC
100
AcDbEntity
  8
Dimensions
  6
Continuous
 62
    47
370
    25
100
AcDbLine
 10
5.455969699315642
 20
6.158837479317781
 30
0.0
 11
3.064404550248738
 21
6.158837479317781
 31
0.0
  0
LINE
  5
2847
330
27AC
100
AcDbEntity
  8
Dimensions
  6
Continuous
 62
    47
370
    25
100
AcDbLine
 10
3.189404550248738
 20
7.600412284696691
 30
0.0
 11
3.189404550248738
 21
7.212010861640663
 31
0.0
  0
LINE
  5
2848
330
27AC
100
AcDbEntity
  8
Dimensions
  6
Continuous
 62
    47
370
    25
100
AcDbLine
 10
3.189404550248738
 20
6.257262673938867
 30
0.0
 11
3.189404550248738
 21
6.779379431319176
 31
0.0
  0
SOLID
  5
2849
330
27AC
100
AcDbEntity
  8
Dimensions
  6
Continuous
 62
    47
100
AcDbTrace
 10
3.173000351145224
 20
7.600412284696691
 30
0.0
 11
3.205808749352252
 21
7.600412284696691
 31
0.0
 12
3.189404550248738
 22
7.698837479317777
 32
0.0
 13
3.189404550248738
 23
7.698837479317777
 33
0.0
  0
SOLID
  5
284A
330
27AC
100
AcDbEntity
  8
Dimensions
  6
Continuous
 62
    47
100
AcDbTrace
 10
3.173000351145224
 20
6.257262673938867
 30
0.0
 11
3.205808749352252
 21
6.257262673938867
 31
0.0
 12
3.189404550248738
 22
6.158837479317781
 32
0.0
 13
3.189404550248738
 23
6.158837479317781
 33
0.0
  0
MTEXT
  5
284B
330
27AC
100
AcDbEntity
  8
Dimensions
  6
Continuous
 62
    47
370
    25
100
AcDbMText
 10
3.189404550248737
 20
6.995695146479921
 30
0.0
 40
0.1200000047683716
 41
0.0
 71
     5
 72
     1
  1
\A1;1.540
  7
TextStyle8
 11
0.0000000000000001
 21
1.0
 31
0.0
 73
     1
 44
1.0
  0
POINT
  5
284C
330
27AC
100
AcDbEntity
  8
Defpoints
  6
Continuous
 62
     0
100
AcDbPoint
 10
6.018469699315641
 20
7.698837479317776
 30
0.0
  0
POINT
  5
284D
330
27AC
100
AcDbEntity
  8
Defpoints
  6
Continuous
 62
     0
100
AcDbPoint
 10
5.518469699315642
 20
6.158837479317781
 30
0.0
  0
POINT
  5
284E
330
27AC
100
AcDbEntity
  8
Defpoints
  6
Continuous
 62
     0
100
AcDbPoint
 10
3.189404550248738
 20
6.158837479317781
 30
0.0
  0
ENDBLK
  5
27B8
330
27AC
100
AcDbEntity
  8
0
100
AcDbBlockEnd
  0
ENDSEC
  0
SECTION
  2
ENTITIES
  0
LINE
  5
122
330
1F
100
AcDbEntity
  8
Sketch Lines
  6
Continuous
 62
     7
370
    50
100
AcDbLine
 10
14.29346969931564
 20
7.408837479317782
 30
0.0
 11
14.04346969931564
 21
7.408837479317781
 31
0.0
  0
CIRCLE
  5
123
330
1F
100
AcDbEntity
  8
Sketch Lines
  6
Continuous
 62
     7
370
    50
100
AcDbCircle
 10
14.39646969931564
 20
6.496837479317778
 30
0.0
 40
0.068
  0
LINE
  5
124
330
1F
100
AcDbEntity
  8
Sketch Lines
  6
Continuous
 62
     7
370
    50
100
AcDbLine
 10
14.04346969931564
 20
6.908837479317781
 30
0.0
 11
14.29346969931564
 21
6.908837479317781
 31
0.0
  0
LINE
  5
125
330
1F
100
AcDbEntity
  8
Sketch Lines
  6
Continuous
 62
     7
370
    50
100
AcDbLine
 10
14.29346969931564
 20
6.908837479317781
 30
0.0
 11
14.29346969931564
 21
7.408837479317782
 31
0.0
  0
LINE
  5
126
330
1F
100
AcDbEntity
  8
Sketch Lines
  6
Continuous
 62
     7
370
    50
100
AcDbLine
 10
14.04346969931564
 20
7.408837479317781
 30
0.0
 11
14.04346969931564
 21
6.908837479317781
 31
0.0
  0
LINE
  5
127
330
1F
100
AcDbEntity
  8
Sketch Lines
  6
Continuous
 62
     7
370
    50
100
AcDbLine
 10
13.66346969931564
 20
6.908837479317779
 30
0.0
 11
13.66346969931564
 21
7.408837479317781
 31
0.0
  0
CIRCLE
  5
128
330
1F
100
AcDbEntity
  8
Sketch Lines
  6
Continuous
 62
     7
370
    50
100
AcDbCircle
 10
13.84346969931564
 20
10.42883747931778
 30
0.0
 40
0.184
  0
LINE
  5
129
330
1F
100
AcDbEntity
  8
Sketch Lines
  6
Continuous
 62
     7
370
    50
100
AcDbLine
 10
14.41846969931564
 20
8.123837479317778
 30
0.0
 11
14.41846969931564
 21
8.373837479317776
 31
0.0
  0
LINE
  5
12A
330
1F
100
AcDbEntity
  8
Sketch Lines
  6
Continuous
 62
     7
370
    50
100
AcDbLine
 10
13.91846969931564
 20
8.123837479317778
 30
0.0
 11
14.41846969931564
 21
8.123837479317778
 31
0.0
  0
LINE
  5
12B
330
1F
100
AcDbEntity
  8
Sketch Lines
  6
Continuous
 62
     7
370
    50
100
AcDbLine
 10
13.91846969931564
 20
8.373837479317776
 30
0.0
 11
13.91846969931564
 21
8.123837479317778
 31
0.0
  0
CIRCLE
  5
12C
330
1F
100
AcDbEntity
  8
Sketch Lines
  6
Continuous
 62
     7
370
    50
100
AcDbCircle
 10
14.16846969931564
 20
8.728837479317775
 30
0.0
 40
0.1
  0
CIRCLE
  5
12D
330
1F
100
AcDbEntity
  8
Sketch Lines
  6
Continuous
 62
     7
370
    50
100
AcDbCircle
 10
13.84346969931564
 20
9.428837479317781
 30
0.0
 40
0.1
  0
LINE
  5
12E
330
1F
100
AcDbEntity
  8
Sketch Lines
  6
ACAD_ISO08W100
 62
     7
370
    25
100
AcDbLine
 10
13.46846969931564
 20
8.248837479317769
 30
0.0
 11
14.76846969931563
 21
8.248837479317776
 31
0.0
  0
CIRCLE
  5
12F
330
1F
100
AcDbEntity
  8
Sketch Lines
  6
Continuous
 62
     7
370
    50
100
AcDbCircle
 10
14.16846969931564
 20
7.698837479317776
 30
0.0
 40
0.1
  0
LINE
  5
130
330
1F
100
AcDbEntity
  8
Sketch Lines
  6
ACAD_ISO08W100
 62
     7
370
    25
100
AcDbLine
 10
14.16846969931564
 20
8.728837479317775
 30
0.0
 11
14.16846969931564
 21
5.658837479317775
 31
0.0
  0
LINE
  5
131
330
1F
100
AcDbEntity
  8
Sketch Lines
  6
Continuous
 62
     7
370
    50
100
AcDbLine
 10
14.41846969931564
 20
8.373837479317776
 30
0.0
 11
13.91846969931564
 21
8.373837479317776
 31
0.0
  0
LINE
  5
132
330
1F
100
AcDbEntity
  8
Sketch Lines
  6
Continuous
 62
     7
370
    50
100
AcDbLine
 10
13.34846969931564
 20
8.438837479317777
 30
0.0
 11
13.09846969931564
 21
8.438837479317777
 31
0.0
  0
CIRCLE
  5
133
330
1F
100
AcDbEntity
  8
Sketch Lines
  6
Continuous
 62
     7
370
    50
100
AcDbCircle
 10
14.39646969931564
 20
12.25850218173031
 30
0.0
 40
0.068
  0
CIRCLE
  5
134
330
1F
100
AcDbEntity
  8
Sketch Lines
  6
Continuous
 62
     7
370
    50
100
AcDbCircle
 10
13.69346969931564
 20
11.83683747931778
 30
0.0
 40
0.184
  0
LINE
  5
135
330
1F
100
AcDbEntity
  8
Sketch Lines
  6
Continuous
 62
     7
370
    50
100
AcDbLine
 10
14.66846969931564
 20
6.158837479317781
 30
0.0
 11
14.66846969931564
 21
12.58683747931778
 31
0.0
  0
LINE
  5
136
330
1F
100
AcDbEntity
  8
Sketch Lines
  6
ACAD_ISO08W100
 62
     7
370
    25
100
AcDbLine
 10
14.39646969931564
 20
6.496837479317778
 30
0.0
 11
14.39646969931564
 21
12.25850218173031
 31
0.0
  0
CIRCLE
  5
137
330
1F
100
AcDbEntity
  8
Sketch Lines
  6
Continuous
 62
     7
370
    50
100
AcDbCircle
 10
10.09346969931564
 20
6.496837479317784
 30
0.0
 40
0.068
  0
LINE
  5
138
330
1F
100
AcDbEntity
  8
Sketch Lines
  6
Continuous
 62
     7
370
    50
100
AcDbLine
 10
10.61846969931564
 20
6.908837479317779
 30
0.0
 11
10.86846969931564
 21
6.908837479317779
 31
0.0
  0
LINE
  5
139
330
1F
100
AcDbEntity
  8
Sketch Lines
  6
Continuous
 62
     7
370
    50
100
AcDbLine
 10
10.86846969931564
 20
7.408837479317781
 30
0.0
 11
10.61846969931564
 21
7.408837479317781
 31
0.0
  0
LINE
  5
13A
330
1F
100
AcDbEntity
  8
Sketch Lines
  6
Continuous
 62
     7
370
    50
100
AcDbLine
 10
10.86846969931564
 20
6.908837479317779
 30
0.0
 11
10.86846969931564
 21
7.408837479317781
 31
0.0
  0
LINE
  5
13B
330
1F
100
AcDbEntity
  8
Sketch Lines
  6
Continuous
 62
     7
370
    50
100
AcDbLine
 10
10.61846969931564
 20
7.408837479317781
 30
0.0
 11
10.61846969931564
 21
6.908837479317779
 31
0.0
  0
LINE
  5
13C
330
1F
100
AcDbEntity
  8
Sketch Lines
  6
Continuous
 62
     7
370
    50
100
AcDbLine
 10
9.98846969931564
 20
6.908837479317779
 30
0.0
 11
10.23846969931564
 21
6.908837479317779
 31
0.0
  0
LINE
  5
13D
330
1F
100
AcDbEntity
  8
Sketch Lines
  6
Continuous
 62
     7
370
    50
100
AcDbLine
 10
10.23846969931563
 20
7.408837479317781
 30
0.0
 11
9.988469699315642
 21
7.408837479317781
 31
0.0
  0
LINE
  5
13E
330
1F
100
AcDbEntity
  8
Sketch Lines
  6
Continuous
 62
     7
370
    50
100
AcDbLine
 10
10.23846969931564
 20
6.908837479317779
 30
0.0
 11
10.23846969931563
 21
7.408837479317781
 31
0.0
  0
LINE
  5
13F
330
1F
100
AcDbEntity
  8
Sketch Lines
  6
Continuous
 62
     7
370
    50
100
AcDbLine
 10
9.988469699315642
 20
7.408837479317781
 30
0.0
 11
9.98846969931564
 21
6.908837479317779
 31
0.0
  0
LINE
  5
140
330
1F
100
AcDbEntity
  8
Sketch Lines
  6
Continuous
 62
     7
370
    50
100
AcDbLine
 10
11.87846969931564
 20
7.408837479317781
 30
0.0
 11
11.87846969931564
 21
6.908837479317779
 31
0.0
  0
LINE
  5
141
330
1F
100
AcDbEntity
  8
Sketch Lines
  6
Continuous
 62
     7
370
    50
100
AcDbLine
 10
11.49846969931564
 20
6.908837479317779
 30
0.0
 11
11.49846969931564
 21
7.408837479317781
 31
0.0
  0
LINE
  5
142
330
1F
100
AcDbEntity
  8
Sketch Lines
  6
Continuous
 62
     7
370
    50
100
AcDbLine
 10
11.24846969931564
 20
6.908837479317779
 30
0.0
 11
11.49846969931564
 21
6.908837479317779
 31
0.0
  0
LINE
  5
143
330
1F
100
AcDbEntity
  8
Sketch Lines
  6
Continuous
 62
     7
370
    50
100
AcDbLine
 10
11.24846969931564
 20
7.408837479317781
 30
0.0
 11
11.24846969931564
 21
6.908837479317779
 31
0.0
  0
LINE
  5
144
330
1F
100
AcDbEntity
  8
Sketch Lines
  6
Continuous
 62
     7
370
    50
100
AcDbLine
 10
11.49846969931564
 20
7.408837479317781
 30
0.0
 11
11.24846969931564
 21
7.408837479317781
 31
0.0
  0
LINE
  5
145
330
1F
100
AcDbEntity
  8
Sketch Lines
  6
Continuous
 62
     7
370
    50
100
AcDbLine
 10
12.12846969931564
 20
6.908837479317779
 30
0.0
 11
12.12846969931564
 21
7.408837479317781
 31
0.0
  0
LINE
  5
146
330
1F
100
AcDbEntity
  8
Sketch Lines
  6
ACAD_ISO08W100
 62
     7
370
    25
100
AcDbLine
 10
13.22346969931564
 20
8.72883747931778
 30
0.0
 11
13.22346969931564
 21
5.658837479317775
 31
0.0
  0
LINE
  5
147
330
1F
100
AcDbEntity
  8
Sketch Lines
  6
Continuous
 62
     7
370
    50
100
AcDbLine
 10
12.78346969931564
 20
7.408837479317781
 30
0.0
 11
12.78346969931564
 21
6.908837479317781
 31
0.0
  0
LINE
  5
148
330
1F
100
AcDbEntity
  8
Sketch Lines
  6
Continuous
 62
     7
370
    50
100
AcDbLine
 10
13.41346969931564
 20
6.908837479317779
 30
0.0
 11
13.66346969931564
 21
6.908837479317779
 31
0.0
  0
LINE
  5
149
330
1F
100
AcDbEntity
  8
Sketch Lines
  6
Continuous
 62
     7
370
    50
100
AcDbLine
 10
13.66346969931564
 20
7.408837479317781
 30
0.0
 11
13.41346969931564
 21
7.408837479317781
 31
0.0
  0
LINE
  5
14A
330
1F
100
AcDbEntity
  8
Sketch Lines
  6
Continuous
 62
     7
370
    50
100
AcDbLine
 10
13.41346969931564
 20
7.408837479317781
 30
0.0
 11
13.41346969931564
 21
6.908837479317779
 31
0.0
  0
LINE
  5
14B
330
1F
100
AcDbEntity
  8
Sketch Lines
  6
Continuous
 62
     7
370
    50
100
AcDbLine
 10
12.78346969931564
 20
6.908837479317781
 30
0.0
 11
13.03346969931564
 21
6.908837479317779
 31
0.0
  0
LINE
  5
14C
330
1F
100
AcDbEntity
  8
Sketch Lines
  6
Continuous
 62
     7
370
    50
100
AcDbLine
 10
13.03346969931564
 20
6.908837479317779
 30
0.0
 11
13.03346969931564
 21
7.408837479317781
 31
0.0
  0
LINE
  5
14D
330
1F
100
AcDbEntity
  8
Sketch Lines
  6
Continuous
 62
     7
370
    50
100
AcDbLine
 10
13.03346969931564
 20
7.408837479317781
 30
0.0
 11
12.78346969931564
 21
7.408837479317781
 31
0.0
  0
LINE
  5
14E
330
1F
100
AcDbEntity
  8
Sketch Lines
  6
Continuous
 62
     7
370
    50
100
AcDbLine
 10
11.87846969931564
 20
6.908837479317779
 30
0.0
 11
12.12846969931564
 21
6.908837479317779
 31
0.0
  0
LINE
  5
14F
330
1F
100
AcDbEntity
  8
Sketch Lines
  6
Continuous
 62
     7
370
    50
100
AcDbLine
 10
12.46846969931564
 20
7.938837479317776
 30
0.0
 11
12.71846969931564
 21
7.938837479317776
 31
0.0
  0
LINE
  5
150
330
1F
100
AcDbEntity
  8
Sketch Lines
  6
Continuous
 62
     7
370
    50
100
AcDbLine
 10
12.12846969931564
 20
7.408837479317781
 30
0.0
 11
11.87846969931564
 21
7.408837479317781
 31
0.0
  0
CIRCLE
  5
151
330
1F
100
AcDbEntity
  8
Sketch Lines
  6
Continuous
 62
     7
370
    50
100
AcDbCircle
 10
10.11346969931564
 20
7.698837479317776
 30
0.0
 40
0.1
  0
LINE
  5
152
330
1F
100
AcDbEntity
  8
Sketch Lines
  6
ACAD_ISO08W100
 62
     7
370
    25
100
AcDbLine
 10
13.53846969931564
 20
5.658837479317775
 30
0.0
 11
13.53846969931564
 21
7.698837479317776
 31
0.0
  0
LINE
  5
153
330
1F
100
AcDbEntity
  8
Sketch Lines
  6
ACAD_ISO08W100
 62
     7
370
    25
100
AcDbLine
 10
12.90846969931564
 20
7.698837479317776
 30
0.0
 11
12.90846969931564
 21
5.658837479317775
 31
0.0
  0
CIRCLE
  5
154
330
1F
100
AcDbEntity
  8
Sketch Lines
  6
Continuous
 62
     7
370
    50
100
AcDbCircle
 10
13.53846969931564
 20
7.698837479317776
 30
0.0
 40
0.1
  0
LINE
  5
155
330
1F
100
AcDbEntity
  8
Sketch Lines
  6
Continuous
 62
     7
370
    50
100
AcDbLine
 10
13.09846969931564
 20
7.938837479317777
 30
0.0
 11
13.34846969931564
 21
7.938837479317777
 31
0.0
  0
LINE
  5
156
330
1F
100
AcDbEntity
  8
Sketch Lines
  6
Continuous
 62
     7
370
    50
100
AcDbLine
 10
13.34846969931564
 20
7.938837479317777
 30
0.0
 11
13.34846969931564
 21
8.438837479317777
 31
0.0
  0
CIRCLE
  5
157
330
1F
100
AcDbEntity
  8
Sketch Lines
  6
Continuous
 62
     7
370
    50
100
AcDbCircle
 10
12.90846969931564
 20
7.698837479317776
 30
0.0
 40
0.1
  0
LINE
  5
158
330
1F
100
AcDbEntity
  8
Sketch Lines
  6
Continuous
 62
     7
370
    50
100
AcDbLine
 10
13.09846969931564
 20
8.438837479317777
 30
0.0
 11
13.09846969931564
 21
7.938837479317777
 31
0.0
  0
LINE
  5
159
330
1F
100
AcDbEntity
  8
Sketch Lines
  6
Continuous
 62
     7
370
    50
100
AcDbLine
 10
9.92346969931564
 20
8.438837479317777
 30
0.0
 11
9.673469699315642
 21
8.438837479317777
 31
0.0
  0
LINE
  5
15A
330
1F
100
AcDbEntity
  8
Sketch Lines
  6
Continuous
 62
     7
370
    50
100
AcDbLine
 10
10.30346969931564
 20
8.438837479317776
 30
0.0
 11
10.30346969931564
 21
7.938837479317776
 31
0.0
  0
LINE
  5
15B
330
1F
100
AcDbEntity
  8
Sketch Lines
  6
Continuous
 62
     7
370
    50
100
AcDbLine
 10
9.92346969931564
 20
7.938837479317779
 30
0.0
 11
9.92346969931564
 21
8.438837479317777
 31
0.0
  0
LINE
  5
15C
330
1F
100
AcDbEntity
  8
Sketch Lines
  6
Continuous
 62
     7
370
    50
100
AcDbLine
 10
10.55346969931564
 20
7.938837479317776
 30
0.0
 11
10.55346969931564
 21
8.438837479317776
 31
0.0
  0
LINE
  5
15D
330
1F
100
AcDbEntity
  8
Sketch Lines
  6
Continuous
 62
     7
370
    50
100
AcDbLine
 10
10.93346969931564
 20
7.938837479317776
 30
0.0
 11
11.18346969931564
 21
7.938837479317776
 31
0.0
  0
LINE
  5
15E
330
1F
100
AcDbEntity
  8
Sketch Lines
  6
Continuous
 62
     7
370
    50
100
AcDbLine
 10
11.18346969931564
 20
7.938837479317776
 30
0.0
 11
11.18346969931564
 21
8.438837479317776
 31
0.0
  0
LINE
  5
15F
330
1F
100
AcDbEntity
  8
Sketch Lines
  6
Continuous
 62
     7
370
    50
100
AcDbLine
 10
10.93346969931564
 20
8.438837479317776
 30
0.0
 11
10.93346969931564
 21
7.938837479317776
 31
0.0
  0
LINE
  5
160
330
1F
100
AcDbEntity
  8
Sketch Lines
  6
Continuous
 62
     7
370
    50
100
AcDbLine
 10
10.30346969931564
 20
7.938837479317776
 30
0.0
 11
10.55346969931564
 21
7.938837479317776
 31
0.0
  0
LINE
  5
161
330
1F
100
AcDbEntity
  8
Sketch Lines
  6
Continuous
 62
     7
370
    50
100
AcDbLine
 10
10.55346969931564
 20
8.438837479317776
 30
0.0
 11
10.30346969931564
 21
8.438837479317776
 31
0.0
  0
LINE
  5
162
330
1F
100
AcDbEntity
  8
Sketch Lines
  6
ACAD_ISO08W100
 62
     7
370
    25
100
AcDbLine
 10
12.59346969931564
 20
8.728837479317775
 30
0.0
 11
12.59346969931564
 21
5.658837479317775
 31
0.0
  0
LINE
  5
163
330
1F
100
AcDbEntity
  8
Sketch Lines
  6
ACAD_ISO08W100
 62
     7
370
    25
100
AcDbLine
 10
11.05846969931564
 20
8.72883747931778
 30
0.0
 11
11.05846969931564
 21
5.658837479317775
 31
0.0
  0
LINE
  5
164
330
1F
100
AcDbEntity
  8
Sketch Lines
  6
ACAD_ISO08W100
 62
     7
370
    25
100
AcDbLine
 10
10.42846969931564
 20
8.728837479317778
 30
0.0
 11
10.42846969931564
 21
5.658837479317775
 31
0.0
  0
LINE
  5
165
330
1F
100
AcDbEntity
  8
Sketch Lines
  6
Continuous
 62
     7
370
    50
100
AcDbLine
 10
12.71846969931564
 20
7.938837479317776
 30
0.0
 11
12.71846969931564
 21
8.438837479317776
 31
0.0
  0
LINE
  5
166
330
1F
100
AcDbEntity
  8
Sketch Lines
  6
Continuous
 62
     7
370
    50
100
AcDbLine
 10
12.46846969931564
 20
8.438837479317776
 30
0.0
 11
12.46846969931564
 21
7.938837479317776
 31
0.0
  0
CIRCLE
  5
167
330
1F
100
AcDbEntity
  8
Sketch Lines
  6
Continuous
 62
     7
370
    50
100
AcDbCircle
 10
9.79846969931564
 20
8.728837479317775
 30
0.0
 40
0.1
  0
CIRCLE
  5
168
330
1F
100
AcDbEntity
  8
Sketch Lines
  6
Continuous
 62
     7
370
    50
100
AcDbCircle
 10
10.34346969931564
 20
9.428837479317779
 30
0.0
 40
0.1
  0
CIRCLE
  5
169
330
1F
100
AcDbEntity
  8
Sketch Lines
  6
Continuous
 62
     7
370
    50
100
AcDbCircle
 10
10.84346969931564
 20
9.428837479317781
 30
0.0
 40
0.1
  0
CIRCLE
  5
16A
330
1F
100
AcDbEntity
  8
Sketch Lines
  6
Continuous
 62
     7
370
    50
100
AcDbCircle
 10
10.42846969931564
 20
8.728837479317775
 30
0.0
 40
0.1
  0
CIRCLE
  5
16B
330
1F
100
AcDbEntity
  8
Sketch Lines
  6
Continuous
 62
     7
370
    50
100
AcDbCircle
 10
11.05846969931564
 20
8.728837479317775
 30
0.0
 40
0.1
  0
LINE
  5
16C
330
1F
100
AcDbEntity
  8
Sketch Lines
  6
ACAD_ISO08W100
 62
     7
370
    25
100
AcDbLine
 10
10.11346969931564
 20
8.188837479317776
 30
0.0
 11
10.11346969931564
 21
5.658837479317775
 31
0.0
  0
CIRCLE
  5
16D
330
1F
100
AcDbEntity
  8
Sketch Lines
  6
Continuous
 62
     7
370
    50
100
AcDbCircle
 10
11.34346969931564
 20
9.428837479317781
 30
0.0
 40
0.1
  0
CIRCLE
  5
16E
330
1F
100
AcDbEntity
  8
Sketch Lines
  6
Continuous
 62
     7
370
    50
100
AcDbCircle
 10
12.59346969931564
 20
8.728837479317775
 30
0.0
 40
0.1
  0
CIRCLE
  5
16F
330
1F
100
AcDbEntity
  8
Sketch Lines
  6
Continuous
 62
     7
370
    50
100
AcDbCircle
 10
11.84346969931564
 20
9.428837479317781
 30
0.0
 40
0.1
  0
CIRCLE
  5
170
330
1F
100
AcDbEntity
  8
Sketch Lines
  6
Continuous
 62
     7
370
    50
100
AcDbCircle
 10
13.22346969931564
 20
8.728837479317775
 30
0.0
 40
0.1
  0
CIRCLE
  5
171
330
1F
100
AcDbEntity
  8
Sketch Lines
  6
Continuous
 62
     7
370
    50
100
AcDbCircle
 10
12.34346969931564
 20
9.428837479317781
 30
0.0
 40
0.1
  0
CIRCLE
  5
172
330
1F
100
AcDbEntity
  8
Sketch Lines
  6
Continuous
 62
     7
370
    50
100
AcDbCircle
 10
12.84346969931563
 20
9.428837479317781
 30
0.0
 40
0.1
  0
CIRCLE
  5
173
330
1F
100
AcDbEntity
  8
Sketch Lines
  6
Continuous
 62
     7
370
    50
100
AcDbCircle
 10
13.34346969931564
 20
9.428837479317781
 30
0.0
 40
0.1
  0
LINE
  5
174
330
1F
100
AcDbEntity
  8
Sketch Lines
  6
ACAD_ISO08W100
 62
     7
370
    25
100
AcDbLine
 10
12.00346969931564
 20
8.188837479317776
 30
0.0
 11
12.00346969931564
 21
5.658837479317775
 31
0.0
  0
LINE
  5
175
330
1F
100
AcDbEntity
  8
Sketch Lines
  6
ACAD_ISO08W100
 62
     7
370
    25
100
AcDbLine
 10
11.37346969931564
 20
5.658837479317775
 30
0.0
 11
11.37346969931564
 21
8.188837479317776
 31
0.0
  0
LINE
  5
176
330
1F
100
AcDbEntity
  8
Sketch Lines
  6
ACAD_ISO08W100
 62
     7
370
    25
100
AcDbLine
 10
10.74346969931564
 20
8.188837479317776
 30
0.0
 11
10.74346969931564
 21
5.658837479317775
 31
0.0
  0
LINE
  5
177
330
1F
100
AcDbEntity
  8
Sketch Lines
  6
Continuous
 62
     7
370
    50
100
AcDbLine
 10
12.71846969931564
 20
8.438837479317776
 30
0.0
 11
12.46846969931564
 21
8.438837479317776
 31
0.0
  0
CIRCLE
  5
178
330
1F
100
AcDbEntity
  8
Sketch Lines
  6
Continuous
 62
     7
370
    50
100
AcDbCircle
 10
12.00346969931564
 20
7.698837479317776
 30
0.0
 40
0.1
  0
CIRCLE
  5
179
330
1F
100
AcDbEntity
  8
Sketch Lines
  6
Continuous
 62
     7
370
    50
100
AcDbCircle
 10
11.37346969931564
 20
7.698837479317776
 30
0.0
 40
0.1
  0
CIRCLE
  5
17A
330
1F
100
AcDbEntity
  8
Sketch Lines
  6
Continuous
 62
     7
370
    50
100
AcDbCircle
 10
10.74346969931564
 20
7.698837479317776
 30
0.0
 40
0.1
  0
LINE
  5
17B
330
1F
100
AcDbEntity
  8
Sketch Lines
  6
Continuous
 62
     7
370
    50
100
AcDbLine
 10
11.18346969931564
 20
8.438837479317776
 30
0.0
 11
10.93346969931564
 21
8.438837479317776
 31
0.0
  0
CIRCLE
  5
17C
330
1F
100
AcDbEntity
  8
Sketch Lines
  6
Continuous
 62
     7
370
    50
100
AcDbCircle
 10
12.49346969931564
 20
11.83683747931777
 30
0.0
 40
0.184
  0
CIRCLE
  5
17D
330
1F
100
AcDbEntity
  8
Sketch Lines
  6
Continuous
 62
     7
370
    50
100
AcDbCircle
 10
11.89346969931563
 20
12.25850218173031
 30
0.0
 40
0.068
  0
CIRCLE
  5
17E
330
1F
100
AcDbEntity
  8
Sketch Lines
  6
Continuous
 62
     7
370
    50
100
AcDbCircle
 10
11.29346969931564
 20
11.83683747931777
 30
0.0
 40
0.184
  0
CIRCLE
  5
17F
330
1F
100
AcDbEntity
  8
Sketch Lines
  6
Continuous
 62
     7
370
    50
100
AcDbCircle
 10
10.09346969931564
 20
11.83683747931777
 30
0.0
 40
0.184
  0
LINE
  5
180
330
1F
100
AcDbEntity
  8
Sketch Lines
  6
Continuous
 62
     7
370
    50
100
AcDbLine
 10
9.608469699315643
 20
6.908837479317782
 30
0.0
 11
9.608469699315643
 21
7.408837479317783
 31
0.0
  0
LINE
  5
181
330
1F
100
AcDbEntity
  8
Sketch Lines
  6
Continuous
 62
     7
370
    50
100
AcDbLine
 10
9.358469699315641
 20
7.408837479317782
 30
0.0
 11
9.358469699315641
 21
6.908837479317779
 31
0.0
  0
LINE
  5
182
330
1F
100
AcDbEntity
  8
Sketch Lines
  6
Continuous
 62
     7
370
    50
100
AcDbLine
 10
9.673469699315642
 20
7.938837479317775
 30
0.0
 11
9.92346969931564
 21
7.938837479317779
 31
0.0
  0
LINE
  5
183
330
1F
100
AcDbEntity
  8
Sketch Lines
  6
Continuous
 62
     7
370
    50
100
AcDbLine
 10
9.673469699315642
 20
8.438837479317777
 30
0.0
 11
9.673469699315642
 21
7.938837479317775
 31
0.0
  0
LINE
  5
184
330
1F
100
AcDbEntity
  8
Sketch Lines
  6
Continuous
 62
     7
370
    50
100
AcDbLine
 10
9.358469699315641
 20
6.908837479317779
 30
0.0
 11
9.608469699315643
 21
6.908837479317782
 31
0.0
  0
LINE
  5
185
330
1F
100
AcDbEntity
  8
Sketch Lines
  6
Continuous
 62
     7
370
    50
100
AcDbLine
 10
9.608469699315643
 20
7.408837479317783
 30
0.0
 11
9.358469699315641
 21
7.408837479317782
 31
0.0
  0
LINE
  5
186
330
1F
100
AcDbEntity
  8
Sketch Lines
  6
ACAD_ISO08W100
 62
     7
370
    25
100
AcDbLine
 10
9.79846969931564
 20
8.728837479317775
 30
0.0
 11
9.79846969931564
 21
5.658837479317775
 31
0.0
  0
LINE
  5
187
330
1F
100
AcDbEntity
  8
Sketch Lines
  6
Continuous
 62
     7
370
    50
100
AcDbLine
 10
8.728469699315642
 20
6.908837479317779
 30
0.0
 11
8.97846969931564
 21
6.908837479317782
 31
0.0
  0
LINE
  5
188
330
1F
100
AcDbEntity
  8
Sketch Lines
  6
Continuous
 62
     7
370
    50
100
AcDbLine
 10
8.97846969931564
 20
7.408837479317782
 30
0.0
 11
8.72846969931564
 21
7.408837479317782
 31
0.0
  0
LINE
  5
189
330
1F
100
AcDbEntity
  8
Sketch Lines
  6
Continuous
 62
     7
370
    50
100
AcDbLine
 10
8.97846969931564
 20
6.908837479317782
 30
0.0
 11
8.97846969931564
 21
7.408837479317782
 31
0.0
  0
LINE
  5
18A
330
1F
100
AcDbEntity
  8
Sketch Lines
  6
Continuous
 62
     7
370
    50
100
AcDbLine
 10
8.72846969931564
 20
7.408837479317782
 30
0.0
 11
8.728469699315642
 21
6.908837479317779
 31
0.0
  0
LINE
  5
18B
330
1F
100
AcDbEntity
  8
Sketch Lines
  6
Continuous
 62
     7
370
    50
100
AcDbLine
 10
8.098469699315641
 20
6.908837479317779
 30
0.0
 11
8.348469699315641
 21
6.908837479317782
 31
0.0
  0
LINE
  5
18C
330
1F
100
AcDbEntity
  8
Sketch Lines
  6
Continuous
 62
     7
370
    50
100
AcDbLine
 10
8.098469699315641
 20
7.408837479317782
 30
0.0
 11
8.098469699315641
 21
6.908837479317779
 31
0.0
  0
LINE
  5
18D
330
1F
100
AcDbEntity
  8
Sketch Lines
  6
Continuous
 62
     7
370
    50
100
AcDbLine
 10
8.348469699315641
 20
6.908837479317782
 30
0.0
 11
8.348469699315641
 21
7.408837479317782
 31
0.0
  0
LINE
  5
18E
330
1F
100
AcDbEntity
  8
Sketch Lines
  6
Continuous
 62
     7
370
    50
100
AcDbLine
 10
8.348469699315641
 20
7.408837479317782
 30
0.0
 11
8.098469699315641
 21
7.408837479317782
 31
0.0
  0
LINE
  5
18F
330
1F
100
AcDbEntity
  8
Sketch Lines
  6
Continuous
 62
     7
370
    50
100
AcDbLine
 10
7.468469699315642
 20
6.908837479317779
 30
0.0
 11
7.718469699315642
 21
6.908837479317782
 31
0.0
  0
LINE
  5
190
330
1F
100
AcDbEntity
  8
Sketch Lines
  6
Continuous
 62
     7
370
    50
100
AcDbLine
 10
6.518469699315642
 20
7.343837479317775
 30
0.0
 11
6.518469699315642
 21
7.093837479317775
 31
0.0
  0
LINE
  5
191
330
1F
100
AcDbEntity
  8
Sketch Lines
  6
Continuous
 62
     7
370
    50
100
AcDbLine
 10
7.018469699315642
 20
7.343837479317775
 30
0.0
 11
6.518469699315642
 21
7.343837479317775
 31
0.0
  0
LINE
  5
192
330
1F
100
AcDbEntity
  8
Sketch Lines
  6
Continuous
 62
     7
370
    50
100
AcDbLine
 10
7.46846969931564
 20
7.408837479317782
 30
0.0
 11
7.468469699315642
 21
6.908837479317779
 31
0.0
  0
LINE
  5
193
330
1F
100
AcDbEntity
  8
Sketch Lines
  6
Continuous
 62
     7
370
    50
100
AcDbLine
 10
7.718469699315642
 20
6.908837479317782
 30
0.0
 11
7.718469699315642
 21
7.408837479317782
 31
0.0
  0
LINE
  5
194
330
1F
100
AcDbEntity
  8
Sketch Lines
  6
Continuous
 62
     7
370
    50
100
AcDbLine
 10
6.518469699315642
 20
7.093837479317775
 30
0.0
 11
7.018469699315642
 21
7.093837479317775
 31
0.0
  0
LINE
  5
195
330
1F
100
AcDbEntity
  8
Sketch Lines
  6
Continuous
 62
     7
370
    50
100
AcDbLine
 10
7.018469699315642
 20
7.093837479317775
 30
0.0
 11
7.018469699315642
 21
7.343837479317775
 31
0.0
  0
LINE
  5
196
330
1F
100
AcDbEntity
  8
Sketch Lines
  6
Continuous
 62
     7
370
    50
100
AcDbLine
 10
7.718469699315642
 20
7.408837479317782
 30
0.0
 11
7.46846969931564
 21
7.408837479317782
 31
0.0
  0
LINE
  5
197
330
1F
100
AcDbEntity
  8
Sketch Lines
  6
ACAD_ISO08W100
 62
     7
370
    25
100
AcDbLine
 10
9.483469699315643
 20
5.658837479317775
 30
0.0
 11
9.483469699315641
 21
8.188837479317776
 31
0.0
  0
CIRCLE
  5
198
330
1F
100
AcDbEntity
  8
Sketch Lines
  6
Continuous
 62
     7
370
    50
100
AcDbCircle
 10
9.483469699315641
 20
7.698837479317776
 30
0.0
 40
0.1
  0
CIRCLE
  5
199
330
1F
100
AcDbEntity
  8
Sketch Lines
  6
Continuous
 62
     7
370
    50
100
AcDbCircle
 10
8.85346969931564
 20
7.698837479317776
 30
0.0
 40
0.1
  0
LINE
  5
19A
330
1F
100
AcDbEntity
  8
Sketch Lines
  6
ACAD_ISO08W100
 62
     7
370
    25
100
AcDbLine
 10
7.118469699315642
 20
7.158837479317713
 30
0.0
 11
14.76846969931564
 21
7.158837479317782
 31
0.0
  0
CIRCLE
  5
19B
330
1F
100
AcDbEntity
  8
Sketch Lines
  6
Continuous
 62
     7
370
    50
100
AcDbCircle
 10
7.893469699315639
 20
10.42883747931777
 30
0.0
 40
0.1985
  0
CIRCLE
  5
19C
330
1F
100
AcDbEntity
  8
Sketch Lines
  6
Continuous
 62
     7
370
    50
100
AcDbCircle
 10
10.09346969931564
 20
10.42883747931778
 30
0.0
 40
0.1985
  0
CIRCLE
  5
19D
330
1F
100
AcDbEntity
  8
Sketch Lines
  6
Continuous
 62
     7
370
    50
100
AcDbCircle
 10
8.34346969931564
 20
9.428837479317779
 30
0.0
 40
0.1
  0
CIRCLE
  5
19E
330
1F
100
AcDbEntity
  8
Sketch Lines
  6
Continuous
 62
     7
370
    50
100
AcDbCircle
 10
8.84346969931564
 20
9.428837479317779
 30
0.0
 40
0.1
  0
CIRCLE
  5
19F
330
1F
100
AcDbEntity
  8
Sketch Lines
  6
Continuous
 62
     7
370
    50
100
AcDbCircle
 10
9.34346969931564
 20
9.428837479317779
 30
0.0
 40
0.1
  0
CIRCLE
  5
1A0
330
1F
100
AcDbEntity
  8
Sketch Lines
  6
Continuous
 62
     7
370
    50
100
AcDbCircle
 10
9.84346969931564
 20
9.428837479317779
 30
0.0
 40
0.1
  0
LINE
  5
1A1
330
1F
100
AcDbEntity
  8
Sketch Lines
  6
Continuous
 62
     7
370
    50
100
AcDbLine
 10
8.413469699315641
 20
8.438837479317779
 30
0.0
 11
8.413469699315641
 21
7.938837479317776
 31
0.0
  0
LINE
  5
1A2
330
1F
100
AcDbEntity
  8
Sketch Lines
  6
Continuous
 62
     7
370
    50
100
AcDbLine
 10
8.413469699315641
 20
7.938837479317776
 30
0.0
 11
8.663469699315641
 21
7.938837479317779
 31
0.0
  0
LINE
  5
1A3
330
1F
100
AcDbEntity
  8
Sketch Lines
  6
Continuous
 62
     7
370
    50
100
AcDbLine
 10
8.663469699315641
 20
7.938837479317779
 30
0.0
 11
8.663469699315641
 21
8.438837479317779
 31
0.0
  0
LINE
  5
1A4
330
1F
100
AcDbEntity
  8
Sketch Lines
  6
Continuous
 62
     7
370
    50
100
AcDbLine
 10
8.663469699315641
 20
8.438837479317779
 30
0.0
 11
8.413469699315641
 21
8.438837479317779
 31
0.0
  0
LINE
  5
1A5
330
1F
100
AcDbEntity
  8
Sketch Lines
  6
ACAD_ISO08W100
 62
     7
370
    25
100
AcDbLine
 10
7.593469699315641
 20
5.658837479317775
 30
0.0
 11
7.593469699315641
 21
8.188837479317776
 31
0.0
  0
LINE
  5
1A6
330
1F
100
AcDbEntity
  8
Sketch Lines
  6
ACAD_ISO08W100
 62
     7
370
    25
100
AcDbLine
 10
6.768469699315641
 20
8.728837479317775
 30
0.0
 11
6.768469699315643
 21
5.658837479317775
 31
0.0
  0
CIRCLE
  5
1A7
330
1F
100
AcDbEntity
  8
Sketch Lines
  6
Continuous
 62
     7
370
    50
100
AcDbCircle
 10
6.768469699315641
 20
7.698837479317776
 30
0.0
 40
0.1
  0
LINE
  5
1A8
330
1F
100
AcDbEntity
  8
Sketch Lines
  6
Continuous
 62
     7
370
    50
100
AcDbLine
 10
6.518469699315642
 20
8.373837479317774
 30
0.0
 11
6.518469699315642
 21
8.123837479317774
 31
0.0
  0
LINE
  5
1A9
330
1F
100
AcDbEntity
  8
Sketch Lines
  6
Continuous
 62
     7
370
    50
100
AcDbLine
 10
7.018469699315642
 20
8.373837479317774
 30
0.0
 11
6.518469699315642
 21
8.373837479317774
 31
0.0
  0
LINE
  5
1AA
330
1F
100
AcDbEntity
  8
Sketch Lines
  6
Continuous
 62
     7
370
    50
100
AcDbLine
 10
6.518469699315642
 20
8.123837479317774
 30
0.0
 11
7.018469699315642
 21
8.123837479317774
 31
0.0
  0
LINE
  5
1AB
330
1F
100
AcDbEntity
  8
Sketch Lines
  6
Continuous
 62
     7
370
    50
100
AcDbLine
 10
7.018469699315642
 20
8.123837479317774
 30
0.0
 11
7.018469699315642
 21
8.373837479317774
 31
0.0
  0
LINE
  5
1AC
330
1F
100
AcDbEntity
  8
Sketch Lines
  6
Continuous
 62
     7
370
    50
100
AcDbLine
 10
6.268469699315641
 20
8.123837479317774
 30
0.0
 11
6.268469699315641
 21
8.373837479317774
 31
0.0
  0
LINE
  5
1AD
330
1F
100
AcDbEntity
  8
Sketch Lines
  6
ACAD_ISO08W100
 62
     7
370
    25
100
AcDbLine
 10
6.018469699315641
 20
8.248837479317776
 30
0.0
 11
7.432710851150563
 21
8.248837479317776
 31
0.0
  0
CIRCLE
  5
1AE
330
1F
100
AcDbEntity
  8
Sketch Lines
  6
Continuous
 62
     7
370
    50
100
AcDbCircle
 10
6.34346969931564
 20
9.428837479317778
 30
0.0
 40
0.1
  0
CIRCLE
  5
1AF
330
1F
100
AcDbEntity
  8
Sketch Lines
  6
Continuous
 62
     7
370
    50
100
AcDbCircle
 10
6.843469699315641
 20
9.428837479317778
 30
0.0
 40
0.1
  0
CIRCLE
  5
1B0
330
1F
100
AcDbEntity
  8
Sketch Lines
  6
Continuous
 62
     7
370
    50
100
AcDbCircle
 10
7.343469699315639
 20
9.428837479317778
 30
0.0
 40
0.1
  0
CIRCLE
  5
1B1
330
1F
100
AcDbEntity
  8
Sketch Lines
  6
Continuous
 62
     7
370
    50
100
AcDbCircle
 10
7.84346969931564
 20
9.428837479317779
 30
0.0
 40
0.1
  0
CIRCLE
  5
1B2
330
1F
100
AcDbEntity
  8
Sketch Lines
  6
Continuous
 62
     7
370
    50
100
AcDbCircle
 10
6.768469699315641
 20
8.728837479317775
 30
0.0
 40
0.1
  0
LINE
  5
1B3
330
1F
100
AcDbEntity
  8
Sketch Lines
  6
ACAD_ISO08W100
 62
     7
370
    25
100
AcDbLine
 10
8.538469699315641
 20
8.728837479317775
 30
0.0
 11
8.538469699315642
 21
5.658837479317775
 31
0.0
  0
LINE
  5
1B4
330
1F
100
AcDbEntity
  8
Sketch Lines
  6
ACAD_ISO08W100
 62
     7
370
    25
100
AcDbLine
 10
7.908469699315642
 20
8.728837479317778
 30
0.0
 11
7.908469699315642
 21
5.658837479317775
 31
0.0
  0
LINE
  5
1B5
330
1F
100
AcDbEntity
  8
Sketch Lines
  6
ACAD_ISO08W100
 62
     7
370
    25
100
AcDbLine
 10
8.85346969931564
 20
8.188837479317776
 30
0.0
 11
8.85346969931564
 21
5.658837479317775
 31
0.0
  0
LINE
  5
1B6
330
1F
100
AcDbEntity
  8
Sketch Lines
  6
ACAD_ISO08W100
 62
     7
370
    25
100
AcDbLine
 10
8.223469699315641
 20
8.188837479317776
 30
0.0
 11
8.223469699315641
 21
5.658837479317775
 31
0.0
  0
CIRCLE
  5
1B7
330
1F
100
AcDbEntity
  8
Sketch Lines
  6
Continuous
 62
     7
370
    50
100
AcDbCircle
 10
8.223469699315641
 20
7.698837479317776
 30
0.0
 40
0.1
  0
CIRCLE
  5
1B8
330
1F
100
AcDbEntity
  8
Sketch Lines
  6
Continuous
 62
     7
370
    50
100
AcDbCircle
 10
7.593469699315641
 20
7.698837479317776
 30
0.0
 40
0.1
  0
LINE
  5
1B9
330
1F
100
AcDbEntity
  8
Sketch Lines
  6
Continuous
 62
     7
370
    50
100
AcDbLine
 10
7.783469699315641
 20
7.938837479317776
 30
0.0
 11
8.033469699315642
 21
7.938837479317777
 31
0.0
  0
LINE
  5
1BA
330
1F
100
AcDbEntity
  8
Sketch Lines
  6
Continuous
 62
     7
370
    50
100
AcDbLine
 10
7.783469699315641
 20
8.438837479317777
 30
0.0
 11
7.783469699315641
 21
7.938837479317776
 31
0.0
  0
LINE
  5
1BB
330
1F
100
AcDbEntity
  8
Sketch Lines
  6
Continuous
 62
     7
370
    50
100
AcDbLine
 10
8.033469699315642
 20
7.938837479317777
 30
0.0
 11
8.03346969931564
 21
8.438837479317777
 31
0.0
  0
LINE
  5
1BC
330
1F
100
AcDbEntity
  8
Sketch Lines
  6
Continuous
 62
     7
370
    50
100
AcDbLine
 10
8.03346969931564
 20
8.438837479317777
 30
0.0
 11
7.783469699315641
 21
8.438837479317777
 31
0.0
  0
CIRCLE
  5
1BD
330
1F
100
AcDbEntity
  8
Sketch Lines
  6
Continuous
 62
     7
370
    50
100
AcDbCircle
 10
7.908469699315642
 20
8.728837479317775
 30
0.0
 40
0.1
  0
CIRCLE
  5
1BE
330
1F
100
AcDbEntity
  8
Sketch Lines
  6
Continuous
 62
     7
370
    50
100
AcDbCircle
 10
8.538469699315642
 20
8.728837479317775
 30
0.0
 40
0.1
  0
CIRCLE
  5
1BF
330
1F
100
AcDbEntity
  8
Sketch Lines
  6
Continuous
 62
     7
370
    50
100
AcDbCircle
 10
8.293469699315641
 20
12.25850218173031
 30
0.0
 40
0.068
  0
CIRCLE
  5
1C0
330
1F
100
AcDbEntity
  8
Sketch Lines
  6
Continuous
 62
     7
370
    50
100
AcDbCircle
 10
6.34346969931564
 20
11.83683747931777
 30
0.0
 40
0.125
  0
CIRCLE
  5
1C1
330
1F
100
AcDbEntity
  8
Sketch Lines
  6
Continuous
 62
     7
370
    50
100
AcDbCircle
 10
6.34346969931564
 20
10.98883747931778
 30
0.0
 40
0.1
  0
LINE
  5
1C2
330
1F
100
AcDbEntity
  8
Sketch Lines
  6
ACAD_ISO08W100
 62
     7
370
    25
100
AcDbLine
 10
6.34346969931564
 20
9.428837479317778
 30
0.0
 11
6.34346969931564
 21
12.65883747931777
 31
0.0
  0
CIRCLE
  5
1C3
330
1F
100
AcDbEntity
  8
Sketch Lines
  6
Continuous
 62
     7
370
    50
100
AcDbCircle
 10
7.693469699315641
 20
11.83683747931777
 30
0.0
 40
0.184
  0
CIRCLE
  5
1C4
330
1F
100
AcDbEntity
  8
Sketch Lines
  6
Continuous
 62
     7
370
    50
100
AcDbCircle
 10
8.893469699315641
 20
11.83683747931777
 30
0.0
 40
0.184
  0
LINE
  5
1C5
330
1F
100
AcDbEntity
  8
Sketch Lines
  6
ACAD_ISO08W100
 62
     7
370
    25
100
AcDbLine
 10
14.39646969931564
 20
12.25850218173031
 30
0.0
 11
5.790469699315639
 21
12.25850218173031
 31
0.0
  0
LINE
  5
1C6
330
1F
100
AcDbEntity
  8
Sketch Lines
  6
ACAD_ISO08W100
 62
     7
370
    25
100
AcDbLine
 10
6.018469699315641
 20
5.658837479317775
 30
0.0
 11
6.018469699315641
 21
8.728837479317778
 31
0.0
  0
LINE
  5
1C7
330
1F
100
AcDbEntity
  8
Sketch Lines
  6
ACAD_ISO08W100
 62
     7
370
    25
100
AcDbLine
 10
5.468469699315641
 20
7.218837479317773
 30
0.0
 11
7.318469699315642
 21
7.218837479317769
 31
0.0
  0
LINE
  5
1C8
330
1F
100
AcDbEntity
  8
Sketch Lines
  6
Continuous
 62
     7
370
    50
100
AcDbLine
 10
6.268469699315641
 20
7.343837479317774
 30
0.0
 11
5.768469699315642
 21
7.343837479317774
 31
0.0
  0
LINE
  5
1C9
330
1F
100
AcDbEntity
  8
Sketch Lines
  6
Continuous
 62
     7
370
    50
100
AcDbLine
 10
5.768469699315642
 20
8.373837479317774
 30
0.0
 11
5.768469699315642
 21
8.123837479317774
 31
0.0
  0
LINE
  5
1CA
330
1F
100
AcDbEntity
  8
Sketch Lines
  6
Continuous
 62
     7
370
    50
100
AcDbLine
 10
6.268469699315641
 20
8.373837479317774
 30
0.0
 11
5.768469699315642
 21
8.373837479317774
 31
0.0
  0
LINE
  5
1CB
330
1F
100
AcDbEntity
  8
Sketch Lines
  6
Continuous
 62
     7
370
    50
100
AcDbLine
 10
5.768469699315642
 20
8.123837479317774
 30
0.0
 11
6.268469699315641
 21
8.123837479317774
 31
0.0
  0
CIRCLE
  5
1CC
330
1F
100
AcDbEntity
  8
Sketch Lines
  6
Continuous
 62
     7
370
    50
100
AcDbCircle
 10
6.018469699315641
 20
7.698837479317776
 30
0.0
 40
0.1
  0
CIRCLE
  5
1CD
330
1F
100
AcDbEntity
  8
Sketch Lines
  6
Continuous
 62
     7
370
    50
100
AcDbCircle
 10
5.790469699315926
 20
6.496837479317775
 30
0.0
 40
0.068
  0
LINE
  5
1CE
330
1F
100
AcDbEntity
  8
Sketch Lines
  6
Continuous
 62
     7
370
    50
100
AcDbLine
 10
5.768469699315642
 20
7.093837479317775
 30
0.0
 11
6.268469699315641
 21
7.093837479317775
 31
0.0
  0
LINE
  5
1CF
330
1F
100
AcDbEntity
  8
Sketch Lines
  6
Continuous
 62
     7
370
    50
100
AcDbLine
 10
5.768469699315642
 20
7.343837479317774
 30
0.0
 11
5.768469699315642
 21
7.093837479317775
 31
0.0
  0
LINE
  5
1D0
330
1F
100
AcDbEntity
  8
Sketch Lines
  6
Continuous
 62
     7
370
    50
100
AcDbLine
 10
6.268469699315641
 20
7.093837479317775
 30
0.0
 11
6.268469699315641
 21
7.343837479317774
 31
0.0
  0
LINE
  5
1D1
330
1F
100
AcDbEntity
  8
Sketch Lines
  6
Continuous
 62
     7
370
    50
100
AcDbLine
 10
5.518469699315642
 20
6.158837479317781
 30
0.0
 11
14.66846969931564
 21
6.158837479317781
 31
0.0
  0
LINE
  5
1D2
330
1F
100
AcDbEntity
  8
Sketch Lines
  6
ACAD_ISO08W100
 62
     7
370
    25
100
AcDbLine
 10
5.790469699315926
 20
6.496837479317775
 30
0.0
 11
14.39646969931564
 21
6.496837479317778
 31
0.0
  0
LINE
  5
1D3
330
1F
100
AcDbEntity
  8
Sketch Lines
  6
ACAD_ISO08W100
 62
     7
370
    25
100
AcDbLine
 10
14.76846969931564
 20
7.698837479317776
 30
0.0
 11
5.468469699315641
 21
7.698837479317774
 31
0.0
  0
CIRCLE
  5
1D4
330
1F
100
AcDbEntity
  8
Sketch Lines
  6
Continuous
 62
     7
370
    50
100
AcDbCircle
 10
6.34346969931564
 20
10.42883747931777
 30
0.0
 40
0.1475
  0
CIRCLE
  5
1D5
330
1F
100
AcDbEntity
  8
Sketch Lines
  6
Continuous
 62
     7
370
    50
100
AcDbCircle
 10
6.018469699315641
 20
8.728837479317773
 30
0.0
 40
0.1
  0
LINE
  5
1D6
330
1F
100
AcDbEntity
  8
Sketch Lines
  6
ACAD_ISO08W100
 62
     7
370
    25
100
AcDbLine
 10
5.468469699315641
 20
8.188837479317776
 30
0.0
 11
14.76846969931563
 21
8.188837479317777
 31
0.0
  0
LINE
  5
1D7
330
1F
100
AcDbEntity
  8
Sketch Lines
  6
ACAD_ISO08W100
 62
     7
370
    25
100
AcDbLine
 10
5.468469699315641
 20
8.728837479317773
 30
0.0
 11
14.76846969931564
 21
8.728837479317775
 31
0.0
  0
LINE
  5
1D8
330
1F
100
AcDbEntity
  8
Sketch Lines
  6
ACAD_ISO08W100
 62
     7
370
    25
100
AcDbLine
 10
5.46846969931564
 20
9.428837479317778
 30
0.0
 11
14.76846969931564
 21
9.428837479317783
 31
0.0
  0
LINE
  5
1D9
330
1F
100
AcDbEntity
  8
Sketch Lines
  6
ACAD_ISO08W100
 62
     7
370
    25
100
AcDbLine
 10
5.46846969931564
 20
10.42883747931777
 30
0.0
 11
14.76846969931563
 21
10.42883747931778
 31
0.0
  0
CIRCLE
  5
1DA
330
1F
100
AcDbEntity
  8
Sketch Lines
  6
Continuous
 62
     7
370
    50
100
AcDbCircle
 10
5.790469699315639
 20
12.25850218173031
 30
0.0
 40
0.068
  0
LINE
  5
1DB
330
1F
100
AcDbEntity
  8
Sketch Lines
  6
Continuous
 62
     7
370
    50
100
AcDbLine
 10
5.51846969931564
 20
12.58683747931778
 30
0.0
 11
5.518469699315642
 21
6.158837479317782
 31
0.0
  0
LINE
  5
1DC
330
1F
100
AcDbEntity
  8
Sketch Lines
  6
ACAD_ISO08W100
 62
     7
370
    25
100
AcDbLine
 10
5.790469699315639
 20
12.24883747931777
 30
0.0
 11
5.790469699315926
 21
6.496837479317775
 31
0.0
  0
LINE
  5
1DD
330
1F
100
AcDbEntity
  8
Sketch Lines
  6
ACAD_ISO08W100
 62
     7
370
    25
100
AcDbLine
 10
5.46846969931564
 20
11.83683747931777
 30
0.0
 11
14.76846969931563
 21
11.83683747931778
 31
0.0
  0
LINE
  5
1DE
330
1F
100
AcDbEntity
  8
Sketch Lines
  6
Continuous
 62
     7
370
    50
100
AcDbLine
 10
14.66846969931564
 20
12.58683747931778
 30
0.0
 11
5.518469699315639
 21
12.58683747931778
 31
0.0
  0
MTEXT
  5
CC
330
1B
100
AcDbEntity
 67
     1
  8
Sketch Lines
  6
Continuous
 62
     7
370
    50
100
AcDbMText
 10
19.20336881068747
 20
16.53999999999999
 30
0.0
 40
0.1200787429734478
 41
0.0
 71
     7
 72
     1
  1
1
  7
TextStyle13
 73
     1
 44
1.0
  0
MTEXT
  5
CE
330
1B
100
AcDbEntity
 67
     1
  8
Sketch Lines
  6
Continuous
 62
     7
370
    50
100
AcDbMText
 10
19.20336881068747
 20
0.3399212570265522
 30
0.0
 40
0.1200787429734478
 41
0.0
 71
     7
 72
     1
  1
1
  7
TextStyle13
 73
     1
 44
1.0
  0
MTEXT
  5
CF
330
1B
100
AcDbEntity
 67
     1
  8
Sketch Lines
  6
Continuous
 62
     7
370
    50
100
AcDbMText
 10
13.70336881068747
 20
16.53999999999999
 30
0.0
 40
0.1200787429734478
 41
0.0
 71
     7
 72
     1
  1
2
  7
TextStyle13
 73
     1
 44
1.0
  0
MTEXT
  5
D0
330
1B
100
AcDbEntity
 67
     1
  8
Sketch Lines
  6
Continuous
 62
     7
370
    50
100
AcDbMText
 10
13.70336881068747
 20
0.3399212570265522
 30
0.0
 40
0.1200787429734478
 41
0.0
 71
     7
 72
     1
  1
2
  7
TextStyle13
 73
     1
 44
1.0
  0
MTEXT
  5
D1
330
1B
100
AcDbEntity
 67
     1
  8
Sketch Lines
  6
Continuous
 62
     7
370
    50
100
AcDbMText
 10
8.203368810687479
 20
16.53999999999999
 30
0.0
 40
0.1200787429734478
 41
0.0
 71
     7
 72
     1
  1
3
  7
TextStyle13
 73
     1
 44
1.0
  0
MTEXT
  5
D2
330
1B
100
AcDbEntity
 67
     1
  8
Sketch Lines
  6
Continuous
 62
     7
370
    50
100
AcDbMText
 10
8.203368810687479
 20
0.3399212570265522
 30
0.0
 40
0.1200787429734478
 41
0.0
 71
     7
 72
     1
  1
3
  7
TextStyle13
 73
     1
 44
1.0
  0
MTEXT
  5
D3
330
1B
100
AcDbEntity
 67
     1
  8
Sketch Lines
  6
Continuous
 62
     7
370
    50
100
AcDbMText
 10
2.703368810687479
 20
16.53999999999999
 30
0.0
 40
0.1200787429734478
 41
0.0
 71
     7
 72
     1
  1
4
  7
TextStyle13
 73
     1
 44
1.0
  0
MTEXT
  5
D4
330
1B
100
AcDbEntity
 67
     1
  8
Sketch Lines
  6
Continuous
 62
     7
370
    50
100
AcDbMText
 10
2.703368810687479
 20
0.3399212570265522
 30
0.0
 40
0.1200787429734478
 41
0.0
 71
     7
 72
     1
  1
4
  7
TextStyle13
 73
     1
 44
1.0
  0
MTEXT
  5
E5
330
1B
100
AcDbEntity
 67
     1
  8
Sketch Lines
  6
Continuous
 62
     7
370
    50
100
AcDbMText
 10
0.5937652403538622
 20
2.064960628513275
 30
0.0
 40
0.1200787429734478
 41
0.0
 71
     7
 72
     1
  1
A
  7
TextStyle13
 73
     1
 44
1.0
  0
MTEXT
  5
E6
330
1B
100
AcDbEntity
 67
     1
  8
Sketch Lines
  6
Continuous
 62
     7
370
    50
100
AcDbMText
 10
21.2938439833273
 20
2.064960628513275
 30
0.0
 40
0.1200787429734478
 41
0.0
 71
     7
 72
     1
  1
A
  7
TextStyle13
 73
     1
 44
1.0
  0
MTEXT
  5
E7
330
1B
100
AcDbEntity
 67
     1
  8
Sketch Lines
  6
Continuous
 62
     7
370
    50
100
AcDbMText
 10
0.5939940494439733
 20
6.314960628513275
 30
0.0
 40
0.1200787429734478
 41
0.0
 71
     7
 72
     1
  1
B
  7
TextStyle13
 73
     1
 44
1.0
  0
MTEXT
  5
E8
330
1B
100
AcDbEntity
 67
     1
  8
Sketch Lines
  6
Continuous
 62
     7
370
    50
100
AcDbMText
 10
21.29407279241742
 20
6.314960628513275
 30
0.0
 40
0.1200787429734478
 41
0.0
 71
     7
 72
     1
  1
B
  7
TextStyle13
 73
     1
 44
1.0
  0
MTEXT
  5
E9
330
1B
100
AcDbEntity
 67
     1
  8
Sketch Lines
  6
Continuous
 62
     7
370
    50
100
AcDbMText
 10
0.5893721140369656
 20
10.56496062851327
 30
0.0
 40
0.1200787429734478
 41
0.0
 71
     7
 72
     1
  1
C
  7
TextStyle13
 73
     1
 44
1.0
  0
MTEXT
  5
EA
330
1B
100
AcDbEntity
 67
     1
  8
Sketch Lines
  6
Continuous
 62
     7
370
    50
100
AcDbMText
 10
21.28945085701041
 20
10.56496062851327
 30
0.0
 40
0.1200787429734478
 41
0.0
 71
     7
 72
     1
  1
C
  7
TextStyle13
 73
     1
 44
3.005241394042968
  0
MTEXT
  5
EB
330
1B
100
AcDbEntity
 67
     1
  8
Sketch Lines
  6
Continuous
 62
     7
370
    50
100
AcDbMText
 10
0.5893721140369656
 20
14.81496062851327
 30
0.0
 40
0.1200787429734478
 41
0.0
 71
     7
 72
     1
  1
D
  7
TextStyle13
 73
     1
 44
1.0
  0
MTEXT
  5
EC
330
1B
100
AcDbEntity
 67
     1
  8
Sketch Lines
  6
Continuous
 62
     7
370
    50
100
AcDbMText
 10
21.28945085701041
 20
14.81496062851327
 30
0.0
 40
0.1200787429734478
 41
0.0
 71
     7
 72
     1
  1
D
  7
TextStyle13
 73
     1
 44
1.0
  0
INSERT
  5
ED
330
1B
100
AcDbEntity
 67
     1
  8
Sketch Lines
100
AcDbBlockReference
  2
2dTransBorder1
 10
0.0
 20
0.0
 30
0.0
 41
0.3937007874015748
 42
0.3937007874015748
 43
0.3937007874015748
  0
MTEXT
  5
106
330
1B
100
AcDbEntity
 67
     1
  8
Sketch Lines
  6
Continuous
 62
     7
370
    50
100
AcDbMText
 10
17.19415031279872
 20
1.003089874229543
 30
0.0
 40
0.1000000031914298
 41
0.0
 71
     7
 72
     1
  1
SIZE
  7
TextStyle6
 73
     1
 44
1.0
  0
MTEXT
  5
107
330
1B
100
AcDbEntity
 67
     1
  8
Sketch Lines
  6
Continuous
 62
     7
370
    50
100
AcDbMText
 10
18.50391441929133
 20
0.9887880859735156
 30
0.0
 40
0.1000000031914298
 41
0.0
 71
     7
 72
     1
  1
DWG NO
  7
TextStyle6
 73
     1
 44
1.0
  0
MTEXT
  5
108
330
1B
100
AcDbEntity
 67
     1
  8
Sketch Lines
  6
Continuous
 62
     7
370
    50
100
AcDbMText
 10
20.91354544256101
 20
0.997922480061416
 30
0.0
 40
0.1000000031914298
 41
0.0
 71
     7
 72
     1
  1
REV
  7
TextStyle6
 73
     1
 44
1.0
  0
MTEXT
  5
109
330
1B
100
AcDbEntity
 67
     1
  8
Sketch Lines
  6
Continuous
 62
     7
370
    50
100
AcDbMText
 10
17.14022005330122
 20
0.6327486901022109
 30
0.0
 40
0.1000000031914298
 41
0.0
 71
     7
 72
     1
  1
SCALE
  7
TextStyle6
 73
     1
 44
1.0
  0
MTEXT
  5
10A
330
1B
100
AcDbEntity
 67
     1
  8
Sketch Lines
  6
Continuous
 62
     7
370
    50
100
AcDbMText
 10
19.5196624507874
 20
0.5410368687533691
 30
0.0
 40
0.1000000031914298
 41
0.0
 71
     7
 72
     1
  1
SHEET
  7
TextStyle6
 73
     1
 44
1.0
  0
MTEXT
  5
10B
330
1B
100
AcDbEntity
 67
     1
  8
Sketch Lines
  6
Continuous
 62
     7
370
    50
100
AcDbMText
 10
20.47241835629921
 20
0.5410368687533691
 30
0.0
 40
0.1000000031914298
 41
0.0
 71
     7
 72
     1
  1
OF
  7
TextStyle6
 73
     1
 44
1.0
  0
MTEXT
  5
10C
330
1B
100
AcDbEntity
 67
     1
  8
Sketch Lines
  6
Continuous
 62
     7
370
    50
100
AcDbMText
 10
15.01533174212598
 20
2.388178930149819
 30
0.0
 40
0.1000000031914298
 41
0.0
 71
     7
 72
     1
  1
DRAWN
  7
TextStyle6
 73
     1
 44
1.0
  0
MTEXT
  5
10D
330
1B
100
AcDbEntity
 67
     1
  8
Sketch Lines
  6
Continuous
 62
     7
370
    50
100
AcDbMText
 10
15.00958931186268
 20
2.140199807444347
 30
0.0
 40
0.1000000031914298
 41
0.0
 71
     7
 72
     1
  1
CHECKED
  7
TextStyle6
 73
     1
 44
1.0
  0
MTEXT
  5
10E
330
1B
100
AcDbEntity
 67
     1
  8
Sketch Lines
  6
Continuous
 62
     7
370
    50
100
AcDbMText
 10
15.00885022266546
 20
1.374614857627059
 30
0.0
 40
0.1000000031914298
 41
0.0
 71
     7
 72
     1
  1
APPROVED
  7
TextStyle6
 73
     1
 44
1.0
  0
MTEXT
  5
10F
330
1B
100
AcDbEntity
 67
     1
  8
Sketch Lines
  6
Continuous
 62
     7
370
    50
100
AcDbMText
 10
14.99810445133609
 20
1.888068221828563
 30
0.0
 40
0.1000000031914298
 41
0.0
 71
     7
 72
     1
  1
QA
  7
TextStyle6
 73
     1
 44
1.0
  0
MTEXT
  5
110
330
1B
100
AcDbEntity
 67
     1
  8
Sketch Lines
  6
Continuous
 62
     7
370
    50
100
AcDbMText
 10
15.0218132615865
 20
1.633640888273392
 30
0.0
 40
0.1000000031914298
 41
0.0
 71
     7
 72
     1
  1
MFG
  7
TextStyle6
 73
     1
 44
1.0
  0
MTEXT
  5
111
330
1B
100
AcDbEntity
 67
     1
  8
Sketch Lines
  6
Continuous
 62
     7
370
    50
100
AcDbMText
 10
17.14847696444151
 20
1.754949271307699
 30
0.0
 40
0.1000000031914298
 41
0.0
 71
     7
 72
     1
  1
TITLE
  7
TextStyle6
 73
     1
 44
1.0
  0
MTEXT
  5
112
330
1B
100
AcDbEntity
 67
     1
  8
Sketch Lines
  6
Continuous
 62
     7
370
    50
100
AcDbMText
 10
17.2929699253378
 20
1.348996858943462
 30
0.0
 40
0.1249999981226883
 41
0.0
 71
     7
 72
     1
  1
 
  7
TextStyle5
 73
     1
 44
1.0
  0
MTEXT
  5
113
330
1B
100
AcDbEntity
 67
     1
  8
Sketch Lines
  6
Continuous
 62
     7
370
    50
100
AcDbMText
 10
18.50391441929133
 20
0.8081125896326838
 30
0.0
 40
0.1249999981226883
 41
0.0
 71
     7
 72
     1
  1
front panel march 2
  7
TextStyle5
 73
     1
 44
1.0
  0
MTEXT
  5
114
330
1B
100
AcDbEntity
 67
     1
  8
Sketch Lines
  6
Continuous
 62
     7
370
    50
100
AcDbMText
 10
20.06654351409365
 20
0.5402202643450075
 30
0.0
 40
0.1249999981226883
 41
0.0
 71
     7
 72
     1
  1
1 
  7
TextStyle5
 73
     1
 44
1.0
  0
MTEXT
  5
115
330
1B
100
AcDbEntity
 67
     1
  8
Sketch Lines
  6
Continuous
 62
     7
370
    50
100
AcDbMText
 10
20.78737898622047
 20
0.5393600393700786
 30
0.0
 40
0.1249999981226883
 41
0.0
 71
     7
 72
     1
  1
1 
  7
TextStyle5
 73
     1
 44
1.0
  0
MTEXT
  5
116
330
1B
100
AcDbEntity
 67
     1
  8
Sketch Lines
  6
Continuous
 62
     7
370
    50
100
AcDbMText
 10
21.03889307374606
 20
0.8159494793521197
 30
0.0
 40
0.1249999981226883
 41
0.0
 71
     7
 72
     1
  1
 
  7
TextStyle5
 73
     1
 44
1.0
  0
MTEXT
  5
117
330
1B
100
AcDbEntity
 67
     1
  8
Sketch Lines
  6
Continuous
 62
     7
370
    50
100
AcDbMText
 10
17.27967717518706
 20
0.7617673978387977
 30
0.0
 40
0.1249999981226883
 41
0.0
 71
     7
 72
     1
  1
C
  7
TextStyle5
 73
     1
 44
1.0
  0
MTEXT
  5
118
330
1B
100
AcDbEntity
 67
     1
  8
Sketch Lines
  6
Continuous
 62
     7
370
    50
100
AcDbMText
 10
19.16499469522765
 20
2.126314632721881
 30
0.0
 40
0.1249999981226883
 41
0.0
 71
     7
 72
     1
  1
 
  7
TextStyle5
 73
     1
 44
1.0
  0
MTEXT
  5
119
330
1B
100
AcDbEntity
 67
     1
  8
Sketch Lines
  6
Continuous
 62
     7
370
    50
100
AcDbMText
 10
15.08827105225305
 20
2.296462142672051
 30
0.0
 40
0.1000000031914298
 41
0.0
 71
     7
 72
     1
  1
ladyada
  7
TextStyle6
 73
     1
 44
1.0
  0
MTEXT
  5
11A
330
1B
100
AcDbEntity
 67
     1
  8
Sketch Lines
  6
Continuous
 62
     7
370
    50
100
AcDbMText
 10
16.27519980569533
 20
2.26486908293725
 30
0.0
 40
0.1000000031914298
 41
0.0
 71
     7
 72
     1
  1
3/2/2005
  7
TextStyle6
 73
     1
 44
1.0
  0
MTEXT
  5
11B
330
1B
100
AcDbEntity
 67
     1
  8
Sketch Lines
  6
Continuous
 62
     7
370
    50
100
AcDbMText
 10
15.05880965340149
 20
2.005008342518518
 30
0.0
 40
0.1000000031914298
 41
0.0
 71
     7
 72
     1
  1
 
  7
TextStyle6
 73
     1
 44
1.0
  0
MTEXT
  5
11C
330
1B
100
AcDbEntity
 67
     1
  8
Sketch Lines
  6
Continuous
 62
     7
370
    50
100
AcDbMText
 10
16.28339857374235
 20
2.032585228215983
 30
0.0
 40
0.1000000031914298
 41
0.0
 71
     7
 72
     1
  1
 
  7
TextStyle6
 73
     1
 44
1.0
  0
MTEXT
  5
11D
330
1B
100
AcDbEntity
 67
     1
  8
Sketch Lines
  6
Continuous
 62
     7
370
    50
100
AcDbMText
 10
15.01492872018718
 20
1.267341860670297
 30
0.0
 40
0.1000000031914298
 41
0.0
 71
     7
 72
     1
  1
 
  7
TextStyle6
 73
     1
 44
1.0
  0
MTEXT
  5
11E
330
1B
100
AcDbEntity
 67
     1
  8
Sketch Lines
  6
Continuous
 62
     7
370
    50
100
AcDbMText
 10
16.26886508358202
 20
1.26022786468494
 30
0.0
 40
0.1000000031914298
 41
0.0
 71
     7
 72
     1
  1
 
  7
TextStyle6
 73
     1
 44
1.0
  0
MTEXT
  5
11F
330
1B
100
AcDbEntity
 67
     1
  8
Sketch Lines
  6
Continuous
 62
     7
370
    50
100
AcDbMText
 10
15.07625397174634
 20
1.521889183319735
 30
0.0
 40
0.1000000031914298
 41
0.0
 71
     7
 72
     1
  1
 
  7
TextStyle6
 73
     1
 44
1.0
  0
MTEXT
  5
120
330
1B
100
AcDbEntity
 67
     1
  8
Sketch Lines
  6
Continuous
 62
     7
370
    50
100
AcDbMText
 10
16.27511380731571
 20
1.50827578803613
 30
0.0
 40
0.1000000031914298
 41
0.0
 71
     7
 72
     1
  1
 
  7
TextStyle6
 73
     1
 44
1.0
  0
INSERT
  5
121
330
1B
100
AcDbEntity
 67
     1
  8
Sketch Lines
100
AcDbBlockReference
  2
2dTransTitleBlock1
 10
0.0
 20
0.0
 30
0.0
 41
0.3937007874015748
 42
0.3937007874015748
 43
0.3937007874015748
  0
LINE
  5
1DF
330
1B
100
AcDbEntity
 67
     1
  8
Sketch Lines
  6
Continuous
 62
     7
370
    50
100
AcDbLine
 10
14.29346969931564
 20
7.408837479317782
 30
0.0
 11
14.04346969931564
 21
7.408837479317781
 31
0.0
  0
CIRCLE
  5
1E0
330
1B
100
AcDbEntity
 67
     1
  8
Sketch Lines
  6
Continuous
 62
     7
370
    50
100
AcDbCircle
 10
14.39646969931564
 20
6.496837479317778
 30
0.0
 40
0.068
  0
LINE
  5
1E1
330
1B
100
AcDbEntity
 67
     1
  8
Sketch Lines
  6
Continuous
 62
     7
370
    50
100
AcDbLine
 10
14.04346969931564
 20
6.908837479317781
 30
0.0
 11
14.29346969931564
 21
6.908837479317781
 31
0.0
  0
LINE
  5
1E2
330
1B
100
AcDbEntity
 67
     1
  8
Sketch Lines
  6
Continuous
 62
     7
370
    50
100
AcDbLine
 10
14.29346969931564
 20
6.908837479317781
 30
0.0
 11
14.29346969931564
 21
7.408837479317782
 31
0.0
  0
LINE
  5
1E3
330
1B
100
AcDbEntity
 67
     1
  8
Sketch Lines
  6
Continuous
 62
     7
370
    50
100
AcDbLine
 10
14.04346969931564
 20
7.408837479317781
 30
0.0
 11
14.04346969931564
 21
6.908837479317781
 31
0.0
  0
LINE
  5
1E4
330
1B
100
AcDbEntity
 67
     1
  8
Sketch Lines
  6
Continuous
 62
     7
370
    50
100
AcDbLine
 10
13.66346969931564
 20
6.908837479317779
 30
0.0
 11
13.66346969931564
 21
7.408837479317781
 31
0.0
  0
CIRCLE
  5
1E5
330
1B
100
AcDbEntity
 67
     1
  8
Sketch Lines
  6
Continuous
 62
     7
370
    50
100
AcDbCircle
 10
13.84346969931564
 20
10.42883747931778
 30
0.0
 40
0.184
  0
LINE
  5
1E6
330
1B
100
AcDbEntity
 67
     1
  8
Sketch Lines
  6
Continuous
 62
     7
370
    50
100
AcDbLine
 10
14.41846969931564
 20
8.123837479317778
 30
0.0
 11
14.41846969931564
 21
8.373837479317776
 31
0.0
  0
LINE
  5
1E7
330
1B
100
AcDbEntity
 67
     1
  8
Sketch Lines
  6
Continuous
 62
     7
370
    50
100
AcDbLine
 10
13.91846969931564
 20
8.123837479317778
 30
0.0
 11
14.41846969931564
 21
8.123837479317778
 31
0.0
  0
LINE
  5
1E8
330
1B
100
AcDbEntity
 67
     1
  8
Sketch Lines
  6
Continuous
 62
     7
370
    50
100
AcDbLine
 10
13.91846969931564
 20
8.373837479317776
 30
0.0
 11
13.91846969931564
 21
8.123837479317778
 31
0.0
  0
CIRCLE
  5
1E9
330
1B
100
AcDbEntity
 67
     1
  8
Sketch Lines
  6
Continuous
 62
     7
370
    50
100
AcDbCircle
 10
14.16846969931564
 20
8.728837479317775
 30
0.0
 40
0.1
  0
CIRCLE
  5
1EA
330
1B
100
AcDbEntity
 67
     1
  8
Sketch Lines
  6
Continuous
 62
     7
370
    50
100
AcDbCircle
 10
13.84346969931564
 20
9.428837479317781
 30
0.0
 40
0.1
  0
LINE
  5
1EB
330
1B
100
AcDbEntity
 67
     1
  8
Sketch Lines
  6
ACAD_ISO08W100
 62
     7
370
    25
100
AcDbLine
 10
13.46846969931564
 20
8.248837479317769
 30
0.0
 11
14.76846969931563
 21
8.248837479317776
 31
0.0
  0
CIRCLE
  5
1EC
330
1B
100
AcDbEntity
 67
     1
  8
Sketch Lines
  6
Continuous
 62
     7
370
    50
100
AcDbCircle
 10
14.16846969931564
 20
7.698837479317776
 30
0.0
 40
0.1
  0
LINE
  5
1ED
330
1B
100
AcDbEntity
 67
     1
  8
Sketch Lines
  6
ACAD_ISO08W100
 62
     7
370
    25
100
AcDbLine
 10
14.16846969931564
 20
8.728837479317775
 30
0.0
 11
14.16846969931564
 21
5.658837479317775
 31
0.0
  0
LINE
  5
1EE
330
1B
100
AcDbEntity
 67
     1
  8
Sketch Lines
  6
Continuous
 62
     7
370
    50
100
AcDbLine
 10
14.41846969931564
 20
8.373837479317776
 30
0.0
 11
13.91846969931564
 21
8.373837479317776
 31
0.0
  0
LINE
  5
1EF
330
1B
100
AcDbEntity
 67
     1
  8
Sketch Lines
  6
Continuous
 62
     7
370
    50
100
AcDbLine
 10
13.34846969931564
 20
8.438837479317777
 30
0.0
 11
13.09846969931564
 21
8.438837479317777
 31
0.0
  0
CIRCLE
  5
1F0
330
1B
100
AcDbEntity
 67
     1
  8
Sketch Lines
  6
Continuous
 62
     7
370
    50
100
AcDbCircle
 10
14.39646969931564
 20
12.25850218173031
 30
0.0
 40
0.068
  0
CIRCLE
  5
1F1
330
1B
100
AcDbEntity
 67
     1
  8
Sketch Lines
  6
Continuous
 62
     7
370
    50
100
AcDbCircle
 10
13.69346969931564
 20
11.83683747931778
 30
0.0
 40
0.184
  0
LINE
  5
1F2
330
1B
100
AcDbEntity
 67
     1
  8
Sketch Lines
  6
Continuous
 62
     7
370
    50
100
AcDbLine
 10
14.66846969931564
 20
6.158837479317781
 30
0.0
 11
14.66846969931564
 21
12.58683747931778
 31
0.0
  0
LINE
  5
1F3
330
1B
100
AcDbEntity
 67
     1
  8
Sketch Lines
  6
ACAD_ISO08W100
 62
     7
370
    25
100
AcDbLine
 10
14.39646969931564
 20
6.496837479317778
 30
0.0
 11
14.39646969931564
 21
12.25850218173031
 31
0.0
  0
CIRCLE
  5
1F4
330
1B
100
AcDbEntity
 67
     1
  8
Sketch Lines
  6
Continuous
 62
     7
370
    50
100
AcDbCircle
 10
10.09346969931564
 20
6.496837479317784
 30
0.0
 40
0.068
  0
LINE
  5
1F5
330
1B
100
AcDbEntity
 67
     1
  8
Sketch Lines
  6
Continuous
 62
     7
370
    50
100
AcDbLine
 10
10.61846969931564
 20
6.908837479317779
 30
0.0
 11
10.86846969931564
 21
6.908837479317779
 31
0.0
  0
LINE
  5
1F6
330
1B
100
AcDbEntity
 67
     1
  8
Sketch Lines
  6
Continuous
 62
     7
370
    50
100
AcDbLine
 10
10.86846969931564
 20
7.408837479317781
 30
0.0
 11
10.61846969931564
 21
7.408837479317781
 31
0.0
  0
LINE
  5
1F7
330
1B
100
AcDbEntity
 67
     1
  8
Sketch Lines
  6
Continuous
 62
     7
370
    50
100
AcDbLine
 10
10.86846969931564
 20
6.908837479317779
 30
0.0
 11
10.86846969931564
 21
7.408837479317781
 31
0.0
  0
LINE
  5
1F8
330
1B
100
AcDbEntity
 67
     1
  8
Sketch Lines
  6
Continuous
 62
     7
370
    50
100
AcDbLine
 10
10.61846969931564
 20
7.408837479317781
 30
0.0
 11
10.61846969931564
 21
6.908837479317779
 31
0.0
  0
LINE
  5
1F9
330
1B
100
AcDbEntity
 67
     1
  8
Sketch Lines
  6
Continuous
 62
     7
370
    50
100
AcDbLine
 10
9.98846969931564
 20
6.908837479317779
 30
0.0
 11
10.23846969931564
 21
6.908837479317779
 31
0.0
  0
LINE
  5
1FA
330
1B
100
AcDbEntity
 67
     1
  8
Sketch Lines
  6
Continuous
 62
     7
370
    50
100
AcDbLine
 10
10.23846969931563
 20
7.408837479317781
 30
0.0
 11
9.988469699315642
 21
7.408837479317781
 31
0.0
  0
LINE
  5
1FB
330
1B
100
AcDbEntity
 67
     1
  8
Sketch Lines
  6
Continuous
 62
     7
370
    50
100
AcDbLine
 10
10.23846969931564
 20
6.908837479317779
 30
0.0
 11
10.23846969931563
 21
7.408837479317781
 31
0.0
  0
LINE
  5
1FC
330
1B
100
AcDbEntity
 67
     1
  8
Sketch Lines
  6
Continuous
 62
     7
370
    50
100
AcDbLine
 10
9.988469699315642
 20
7.408837479317781
 30
0.0
 11
9.98846969931564
 21
6.908837479317779
 31
0.0
  0
LINE
  5
1FD
330
1B
100
AcDbEntity
 67
     1
  8
Sketch Lines
  6
Continuous
 62
     7
370
    50
100
AcDbLine
 10
11.87846969931564
 20
7.408837479317781
 30
0.0
 11
11.87846969931564
 21
6.908837479317779
 31
0.0
  0
LINE
  5
1FE
330
1B
100
AcDbEntity
 67
     1
  8
Sketch Lines
  6
Continuous
 62
     7
370
    50
100
AcDbLine
 10
11.49846969931564
 20
6.908837479317779
 30
0.0
 11
11.49846969931564
 21
7.408837479317781
 31
0.0
  0
LINE
  5
1FF
330
1B
100
AcDbEntity
 67
     1
  8
Sketch Lines
  6
Continuous
 62
     7
370
    50
100
AcDbLine
 10
11.24846969931564
 20
6.908837479317779
 30
0.0
 11
11.49846969931564
 21
6.908837479317779
 31
0.0
  0
LINE
  5
200
330
1B
100
AcDbEntity
 67
     1
  8
Sketch Lines
  6
Continuous
 62
     7
370
    50
100
AcDbLine
 10
11.24846969931564
 20
7.408837479317781
 30
0.0
 11
11.24846969931564
 21
6.908837479317779
 31
0.0
  0
LINE
  5
201
330
1B
100
AcDbEntity
 67
     1
  8
Sketch Lines
  6
Continuous
 62
     7
370
    50
100
AcDbLine
 10
11.49846969931564
 20
7.408837479317781
 30
0.0
 11
11.24846969931564
 21
7.408837479317781
 31
0.0
  0
LINE
  5
202
330
1B
100
AcDbEntity
 67
     1
  8
Sketch Lines
  6
Continuous
 62
     7
370
    50
100
AcDbLine
 10
12.12846969931564
 20
6.908837479317779
 30
0.0
 11
12.12846969931564
 21
7.408837479317781
 31
0.0
  0
LINE
  5
203
330
1B
100
AcDbEntity
 67
     1
  8
Sketch Lines
  6
ACAD_ISO08W100
 62
     7
370
    25
100
AcDbLine
 10
13.22346969931564
 20
8.72883747931778
 30
0.0
 11
13.22346969931564
 21
5.658837479317775
 31
0.0
  0
LINE
  5
204
330
1B
100
AcDbEntity
 67
     1
  8
Sketch Lines
  6
Continuous
 62
     7
370
    50
100
AcDbLine
 10
12.78346969931564
 20
7.408837479317781
 30
0.0
 11
12.78346969931564
 21
6.908837479317781
 31
0.0
  0
LINE
  5
205
330
1B
100
AcDbEntity
 67
     1
  8
Sketch Lines
  6
Continuous
 62
     7
370
    50
100
AcDbLine
 10
13.41346969931564
 20
6.908837479317779
 30
0.0
 11
13.66346969931564
 21
6.908837479317779
 31
0.0
  0
LINE
  5
206
330
1B
100
AcDbEntity
 67
     1
  8
Sketch Lines
  6
Continuous
 62
     7
370
    50
100
AcDbLine
 10
13.66346969931564
 20
7.408837479317781
 30
0.0
 11
13.41346969931564
 21
7.408837479317781
 31
0.0
  0
LINE
  5
207
330
1B
100
AcDbEntity
 67
     1
  8
Sketch Lines
  6
Continuous
 62
     7
370
    50
100
AcDbLine
 10
13.41346969931564
 20
7.408837479317781
 30
0.0
 11
13.41346969931564
 21
6.908837479317779
 31
0.0
  0
LINE
  5
208
330
1B
100
AcDbEntity
 67
     1
  8
Sketch Lines
  6
Continuous
 62
     7
370
    50
100
AcDbLine
 10
12.78346969931564
 20
6.908837479317781
 30
0.0
 11
13.03346969931564
 21
6.908837479317779
 31
0.0
  0
LINE
  5
209
330
1B
100
AcDbEntity
 67
     1
  8
Sketch Lines
  6
Continuous
 62
     7
370
    50
100
AcDbLine
 10
13.03346969931564
 20
6.908837479317779
 30
0.0
 11
13.03346969931564
 21
7.408837479317781
 31
0.0
  0
LINE
  5
20A
330
1B
100
AcDbEntity
 67
     1
  8
Sketch Lines
  6
Continuous
 62
     7
370
    50
100
AcDbLine
 10
13.03346969931564
 20
7.408837479317781
 30
0.0
 11
12.78346969931564
 21
7.408837479317781
 31
0.0
  0
LINE
  5
20B
330
1B
100
AcDbEntity
 67
     1
  8
Sketch Lines
  6
Continuous
 62
     7
370
    50
100
AcDbLine
 10
11.87846969931564
 20
6.908837479317779
 30
0.0
 11
12.12846969931564
 21
6.908837479317779
 31
0.0
  0
LINE
  5
20C
330
1B
100
AcDbEntity
 67
     1
  8
Sketch Lines
  6
Continuous
 62
     7
370
    50
100
AcDbLine
 10
12.46846969931564
 20
7.938837479317776
 30
0.0
 11
12.71846969931564
 21
7.938837479317776
 31
0.0
  0
LINE
  5
20D
330
1B
100
AcDbEntity
 67
     1
  8
Sketch Lines
  6
Continuous
 62
     7
370
    50
100
AcDbLine
 10
12.12846969931564
 20
7.408837479317781
 30
0.0
 11
11.87846969931564
 21
7.408837479317781
 31
0.0
  0
CIRCLE
  5
20E
330
1B
100
AcDbEntity
 67
     1
  8
Sketch Lines
  6
Continuous
 62
     7
370
    50
100
AcDbCircle
 10
10.11346969931564
 20
7.698837479317776
 30
0.0
 40
0.1
  0
LINE
  5
20F
330
1B
100
AcDbEntity
 67
     1
  8
Sketch Lines
  6
ACAD_ISO08W100
 62
     7
370
    25
100
AcDbLine
 10
13.53846969931564
 20
5.658837479317775
 30
0.0
 11
13.53846969931564
 21
7.698837479317776
 31
0.0
  0
LINE
  5
210
330
1B
100
AcDbEntity
 67
     1
  8
Sketch Lines
  6
ACAD_ISO08W100
 62
     7
370
    25
100
AcDbLine
 10
12.90846969931564
 20
7.698837479317776
 30
0.0
 11
12.90846969931564
 21
5.658837479317775
 31
0.0
  0
CIRCLE
  5
211
330
1B
100
AcDbEntity
 67
     1
  8
Sketch Lines
  6
Continuous
 62
     7
370
    50
100
AcDbCircle
 10
13.53846969931564
 20
7.698837479317776
 30
0.0
 40
0.1
  0
LINE
  5
212
330
1B
100
AcDbEntity
 67
     1
  8
Sketch Lines
  6
Continuous
 62
     7
370
    50
100
AcDbLine
 10
13.09846969931564
 20
7.938837479317777
 30
0.0
 11
13.34846969931564
 21
7.938837479317777
 31
0.0
  0
LINE
  5
213
330
1B
100
AcDbEntity
 67
     1
  8
Sketch Lines
  6
Continuous
 62
     7
370
    50
100
AcDbLine
 10
13.34846969931564
 20
7.938837479317777
 30
0.0
 11
13.34846969931564
 21
8.438837479317777
 31
0.0
  0
CIRCLE
  5
214
330
1B
100
AcDbEntity
 67
     1
  8
Sketch Lines
  6
Continuous
 62
     7
370
    50
100
AcDbCircle
 10
12.90846969931564
 20
7.698837479317776
 30
0.0
 40
0.1
  0
LINE
  5
215
330
1B
100
AcDbEntity
 67
     1
  8
Sketch Lines
  6
Continuous
 62
     7
370
    50
100
AcDbLine
 10
13.09846969931564
 20
8.438837479317777
 30
0.0
 11
13.09846969931564
 21
7.938837479317777
 31
0.0
  0
LINE
  5
216
330
1B
100
AcDbEntity
 67
     1
  8
Sketch Lines
  6
Continuous
 62
     7
370
    50
100
AcDbLine
 10
9.92346969931564
 20
8.438837479317777
 30
0.0
 11
9.673469699315642
 21
8.438837479317777
 31
0.0
  0
LINE
  5
217
330
1B
100
AcDbEntity
 67
     1
  8
Sketch Lines
  6
Continuous
 62
     7
370
    50
100
AcDbLine
 10
10.30346969931564
 20
8.438837479317776
 30
0.0
 11
10.30346969931564
 21
7.938837479317776
 31
0.0
  0
LINE
  5
218
330
1B
100
AcDbEntity
 67
     1
  8
Sketch Lines
  6
Continuous
 62
     7
370
    50
100
AcDbLine
 10
9.92346969931564
 20
7.938837479317779
 30
0.0
 11
9.92346969931564
 21
8.438837479317777
 31
0.0
  0
LINE
  5
219
330
1B
100
AcDbEntity
 67
     1
  8
Sketch Lines
  6
Continuous
 62
     7
370
    50
100
AcDbLine
 10
10.55346969931564
 20
7.938837479317776
 30
0.0
 11
10.55346969931564
 21
8.438837479317776
 31
0.0
  0
LINE
  5
21A
330
1B
100
AcDbEntity
 67
     1
  8
Sketch Lines
  6
Continuous
 62
     7
370
    50
100
AcDbLine
 10
10.93346969931564
 20
7.938837479317776
 30
0.0
 11
11.18346969931564
 21
7.938837479317776
 31
0.0
  0
LINE
  5
21B
330
1B
100
AcDbEntity
 67
     1
  8
Sketch Lines
  6
Continuous
 62
     7
370
    50
100
AcDbLine
 10
11.18346969931564
 20
7.938837479317776
 30
0.0
 11
11.18346969931564
 21
8.438837479317776
 31
0.0
  0
LINE
  5
21C
330
1B
100
AcDbEntity
 67
     1
  8
Sketch Lines
  6
Continuous
 62
     7
370
    50
100
AcDbLine
 10
10.93346969931564
 20
8.438837479317776
 30
0.0
 11
10.93346969931564
 21
7.938837479317776
 31
0.0
  0
LINE
  5
21D
330
1B
100
AcDbEntity
 67
     1
  8
Sketch Lines
  6
Continuous
 62
     7
370
    50
100
AcDbLine
 10
10.30346969931564
 20
7.938837479317776
 30
0.0
 11
10.55346969931564
 21
7.938837479317776
 31
0.0
  0
LINE
  5
21E
330
1B
100
AcDbEntity
 67
     1
  8
Sketch Lines
  6
Continuous
 62
     7
370
    50
100
AcDbLine
 10
10.55346969931564
 20
8.438837479317776
 30
0.0
 11
10.30346969931564
 21
8.438837479317776
 31
0.0
  0
LINE
  5
21F
330
1B
100
AcDbEntity
 67
     1
  8
Sketch Lines
  6
ACAD_ISO08W100
 62
     7
370
    25
100
AcDbLine
 10
12.59346969931564
 20
8.728837479317775
 30
0.0
 11
12.59346969931564
 21
5.658837479317775
 31
0.0
  0
LINE
  5
220
330
1B
100
AcDbEntity
 67
     1
  8
Sketch Lines
  6
ACAD_ISO08W100
 62
     7
370
    25
100
AcDbLine
 10
11.05846969931564
 20
8.72883747931778
 30
0.0
 11
11.05846969931564
 21
5.658837479317775
 31
0.0
  0
LINE
  5
221
330
1B
100
AcDbEntity
 67
     1
  8
Sketch Lines
  6
ACAD_ISO08W100
 62
     7
370
    25
100
AcDbLine
 10
10.42846969931564
 20
8.728837479317778
 30
0.0
 11
10.42846969931564
 21
5.658837479317775
 31
0.0
  0
LINE
  5
222
330
1B
100
AcDbEntity
 67
     1
  8
Sketch Lines
  6
Continuous
 62
     7
370
    50
100
AcDbLine
 10
12.71846969931564
 20
7.938837479317776
 30
0.0
 11
12.71846969931564
 21
8.438837479317776
 31
0.0
  0
LINE
  5
223
330
1B
100
AcDbEntity
 67
     1
  8
Sketch Lines
  6
Continuous
 62
     7
370
    50
100
AcDbLine
 10
12.46846969931564
 20
8.438837479317776
 30
0.0
 11
12.46846969931564
 21
7.938837479317776
 31
0.0
  0
CIRCLE
  5
224
330
1B
100
AcDbEntity
 67
     1
  8
Sketch Lines
  6
Continuous
 62
     7
370
    50
100
AcDbCircle
 10
9.79846969931564
 20
8.728837479317775
 30
0.0
 40
0.1
  0
CIRCLE
  5
225
330
1B
100
AcDbEntity
 67
     1
  8
Sketch Lines
  6
Continuous
 62
     7
370
    50
100
AcDbCircle
 10
10.34346969931564
 20
9.428837479317779
 30
0.0
 40
0.1
  0
CIRCLE
  5
226
330
1B
100
AcDbEntity
 67
     1
  8
Sketch Lines
  6
Continuous
 62
     7
370
    50
100
AcDbCircle
 10
10.84346969931564
 20
9.428837479317781
 30
0.0
 40
0.1
  0
CIRCLE
  5
227
330
1B
100
AcDbEntity
 67
     1
  8
Sketch Lines
  6
Continuous
 62
     7
370
    50
100
AcDbCircle
 10
10.42846969931564
 20
8.728837479317775
 30
0.0
 40
0.1
  0
CIRCLE
  5
228
330
1B
100
AcDbEntity
 67
     1
  8
Sketch Lines
  6
Continuous
 62
     7
370
    50
100
AcDbCircle
 10
11.05846969931564
 20
8.728837479317775
 30
0.0
 40
0.1
  0
LINE
  5
229
330
1B
100
AcDbEntity
 67
     1
  8
Sketch Lines
  6
ACAD_ISO08W100
 62
     7
370
    25
100
AcDbLine
 10
10.11346969931564
 20
8.188837479317776
 30
0.0
 11
10.11346969931564
 21
5.658837479317775
 31
0.0
  0
CIRCLE
  5
22A
330
1B
100
AcDbEntity
 67
     1
  8
Sketch Lines
  6
Continuous
 62
     7
370
    50
100
AcDbCircle
 10
11.34346969931564
 20
9.428837479317781
 30
0.0
 40
0.1
  0
CIRCLE
  5
22B
330
1B
100
AcDbEntity
 67
     1
  8
Sketch Lines
  6
Continuous
 62
     7
370
    50
100
AcDbCircle
 10
12.59346969931564
 20
8.728837479317775
 30
0.0
 40
0.1
  0
CIRCLE
  5
22C
330
1B
100
AcDbEntity
 67
     1
  8
Sketch Lines
  6
Continuous
 62
     7
370
    50
100
AcDbCircle
 10
11.84346969931564
 20
9.428837479317781
 30
0.0
 40
0.1
  0
CIRCLE
  5
22D
330
1B
100
AcDbEntity
 67
     1
  8
Sketch Lines
  6
Continuous
 62
     7
370
    50
100
AcDbCircle
 10
13.22346969931564
 20
8.728837479317775
 30
0.0
 40
0.1
  0
CIRCLE
  5
22E
330
1B
100
AcDbEntity
 67
     1
  8
Sketch Lines
  6
Continuous
 62
     7
370
    50
100
AcDbCircle
 10
12.34346969931564
 20
9.428837479317781
 30
0.0
 40
0.1
  0
CIRCLE
  5
22F
330
1B
100
AcDbEntity
 67
     1
  8
Sketch Lines
  6
Continuous
 62
     7
370
    50
100
AcDbCircle
 10
12.84346969931563
 20
9.428837479317781
 30
0.0
 40
0.1
  0
CIRCLE
  5
230
330
1B
100
AcDbEntity
 67
     1
  8
Sketch Lines
  6
Continuous
 62
     7
370
    50
100
AcDbCircle
 10
13.34346969931564
 20
9.428837479317781
 30
0.0
 40
0.1
  0
LINE
  5
231
330
1B
100
AcDbEntity
 67
     1
  8
Sketch Lines
  6
ACAD_ISO08W100
 62
     7
370
    25
100
AcDbLine
 10
12.00346969931564
 20
8.188837479317776
 30
0.0
 11
12.00346969931564
 21
5.658837479317775
 31
0.0
  0
LINE
  5
232
330
1B
100
AcDbEntity
 67
     1
  8
Sketch Lines
  6
ACAD_ISO08W100
 62
     7
370
    25
100
AcDbLine
 10
11.37346969931564
 20
5.658837479317775
 30
0.0
 11
11.37346969931564
 21
8.188837479317776
 31
0.0
  0
LINE
  5
233
330
1B
100
AcDbEntity
 67
     1
  8
Sketch Lines
  6
ACAD_ISO08W100
 62
     7
370
    25
100
AcDbLine
 10
10.74346969931564
 20
8.188837479317776
 30
0.0
 11
10.74346969931564
 21
5.658837479317775
 31
0.0
  0
LINE
  5
234
330
1B
100
AcDbEntity
 67
     1
  8
Sketch Lines
  6
Continuous
 62
     7
370
    50
100
AcDbLine
 10
12.71846969931564
 20
8.438837479317776
 30
0.0
 11
12.46846969931564
 21
8.438837479317776
 31
0.0
  0
CIRCLE
  5
235
330
1B
100
AcDbEntity
 67
     1
  8
Sketch Lines
  6
Continuous
 62
     7
370
    50
100
AcDbCircle
 10
12.00346969931564
 20
7.698837479317776
 30
0.0
 40
0.1
  0
CIRCLE
  5
236
330
1B
100
AcDbEntity
 67
     1
  8
Sketch Lines
  6
Continuous
 62
     7
370
    50
100
AcDbCircle
 10
11.37346969931564
 20
7.698837479317776
 30
0.0
 40
0.1
  0
CIRCLE
  5
237
330
1B
100
AcDbEntity
 67
     1
  8
Sketch Lines
  6
Continuous
 62
     7
370
    50
100
AcDbCircle
 10
10.74346969931564
 20
7.698837479317776
 30
0.0
 40
0.1
  0
LINE
  5
238
330
1B
100
AcDbEntity
 67
     1
  8
Sketch Lines
  6
Continuous
 62
     7
370
    50
100
AcDbLine
 10
11.18346969931564
 20
8.438837479317776
 30
0.0
 11
10.93346969931564
 21
8.438837479317776
 31
0.0
  0
CIRCLE
  5
239
330
1B
100
AcDbEntity
 67
     1
  8
Sketch Lines
  6
Continuous
 62
     7
370
    50
100
AcDbCircle
 10
12.49346969931564
 20
11.83683747931777
 30
0.0
 40
0.184
  0
CIRCLE
  5
23A
330
1B
100
AcDbEntity
 67
     1
  8
Sketch Lines
  6
Continuous
 62
     7
370
    50
100
AcDbCircle
 10
11.89346969931563
 20
12.25850218173031
 30
0.0
 40
0.068
  0
CIRCLE
  5
23B
330
1B
100
AcDbEntity
 67
     1
  8
Sketch Lines
  6
Continuous
 62
     7
370
    50
100
AcDbCircle
 10
11.29346969931564
 20
11.83683747931777
 30
0.0
 40
0.184
  0
CIRCLE
  5
23C
330
1B
100
AcDbEntity
 67
     1
  8
Sketch Lines
  6
Continuous
 62
     7
370
    50
100
AcDbCircle
 10
10.09346969931564
 20
11.83683747931777
 30
0.0
 40
0.184
  0
LINE
  5
23D
330
1B
100
AcDbEntity
 67
     1
  8
Sketch Lines
  6
Continuous
 62
     7
370
    50
100
AcDbLine
 10
9.608469699315643
 20
6.908837479317782
 30
0.0
 11
9.608469699315643
 21
7.408837479317783
 31
0.0
  0
LINE
  5
23E
330
1B
100
AcDbEntity
 67
     1
  8
Sketch Lines
  6
Continuous
 62
     7
370
    50
100
AcDbLine
 10
9.358469699315641
 20
7.408837479317782
 30
0.0
 11
9.358469699315641
 21
6.908837479317779
 31
0.0
  0
LINE
  5
23F
330
1B
100
AcDbEntity
 67
     1
  8
Sketch Lines
  6
Continuous
 62
     7
370
    50
100
AcDbLine
 10
9.673469699315642
 20
7.938837479317775
 30
0.0
 11
9.92346969931564
 21
7.938837479317779
 31
0.0
  0
LINE
  5
240
330
1B
100
AcDbEntity
 67
     1
  8
Sketch Lines
  6
Continuous
 62
     7
370
    50
100
AcDbLine
 10
9.673469699315642
 20
8.438837479317777
 30
0.0
 11
9.673469699315642
 21
7.938837479317775
 31
0.0
  0
LINE
  5
241
330
1B
100
AcDbEntity
 67
     1
  8
Sketch Lines
  6
Continuous
 62
     7
370
    50
100
AcDbLine
 10
9.358469699315641
 20
6.908837479317779
 30
0.0
 11
9.608469699315643
 21
6.908837479317782
 31
0.0
  0
LINE
  5
242
330
1B
100
AcDbEntity
 67
     1
  8
Sketch Lines
  6
Continuous
 62
     7
370
    50
100
AcDbLine
 10
9.608469699315643
 20
7.408837479317783
 30
0.0
 11
9.358469699315641
 21
7.408837479317782
 31
0.0
  0
LINE
  5
243
330
1B
100
AcDbEntity
 67
     1
  8
Sketch Lines
  6
ACAD_ISO08W100
 62
     7
370
    25
100
AcDbLine
 10
9.79846969931564
 20
8.728837479317775
 30
0.0
 11
9.79846969931564
 21
5.658837479317775
 31
0.0
  0
LINE
  5
244
330
1B
100
AcDbEntity
 67
     1
  8
Sketch Lines
  6
Continuous
 62
     7
370
    50
100
AcDbLine
 10
8.728469699315642
 20
6.908837479317779
 30
0.0
 11
8.97846969931564
 21
6.908837479317782
 31
0.0
  0
LINE
  5
245
330
1B
100
AcDbEntity
 67
     1
  8
Sketch Lines
  6
Continuous
 62
     7
370
    50
100
AcDbLine
 10
8.97846969931564
 20
7.408837479317782
 30
0.0
 11
8.72846969931564
 21
7.408837479317782
 31
0.0
  0
LINE
  5
246
330
1B
100
AcDbEntity
 67
     1
  8
Sketch Lines
  6
Continuous
 62
     7
370
    50
100
AcDbLine
 10
8.97846969931564
 20
6.908837479317782
 30
0.0
 11
8.97846969931564
 21
7.408837479317782
 31
0.0
  0
LINE
  5
247
330
1B
100
AcDbEntity
 67
     1
  8
Sketch Lines
  6
Continuous
 62
     7
370
    50
100
AcDbLine
 10
8.72846969931564
 20
7.408837479317782
 30
0.0
 11
8.728469699315642
 21
6.908837479317779
 31
0.0
  0
LINE
  5
248
330
1B
100
AcDbEntity
 67
     1
  8
Sketch Lines
  6
Continuous
 62
     7
370
    50
100
AcDbLine
 10
8.098469699315641
 20
6.908837479317779
 30
0.0
 11
8.348469699315641
 21
6.908837479317782
 31
0.0
  0
LINE
  5
249
330
1B
100
AcDbEntity
 67
     1
  8
Sketch Lines
  6
Continuous
 62
     7
370
    50
100
AcDbLine
 10
8.098469699315641
 20
7.408837479317782
 30
0.0
 11
8.098469699315641
 21
6.908837479317779
 31
0.0
  0
LINE
  5
24A
330
1B
100
AcDbEntity
 67
     1
  8
Sketch Lines
  6
Continuous
 62
     7
370
    50
100
AcDbLine
 10
8.348469699315641
 20
6.908837479317782
 30
0.0
 11
8.348469699315641
 21
7.408837479317782
 31
0.0
  0
LINE
  5
24B
330
1B
100
AcDbEntity
 67
     1
  8
Sketch Lines
  6
Continuous
 62
     7
370
    50
100
AcDbLine
 10
8.348469699315641
 20
7.408837479317782
 30
0.0
 11
8.098469699315641
 21
7.408837479317782
 31
0.0
  0
LINE
  5
24C
330
1B
100
AcDbEntity
 67
     1
  8
Sketch Lines
  6
Continuous
 62
     7
370
    50
100
AcDbLine
 10
7.468469699315642
 20
6.908837479317779
 30
0.0
 11
7.718469699315642
 21
6.908837479317782
 31
0.0
  0
LINE
  5
24D
330
1B
100
AcDbEntity
 67
     1
  8
Sketch Lines
  6
Continuous
 62
     7
370
    50
100
AcDbLine
 10
6.518469699315642
 20
7.343837479317775
 30
0.0
 11
6.518469699315642
 21
7.093837479317775
 31
0.0
  0
LINE
  5
24E
330
1B
100
AcDbEntity
 67
     1
  8
Sketch Lines
  6
Continuous
 62
     7
370
    50
100
AcDbLine
 10
7.018469699315642
 20
7.343837479317775
 30
0.0
 11
6.518469699315642
 21
7.343837479317775
 31
0.0
  0
LINE
  5
24F
330
1B
100
AcDbEntity
 67
     1
  8
Sketch Lines
  6
Continuous
 62
     7
370
    50
100
AcDbLine
 10
7.46846969931564
 20
7.408837479317782
 30
0.0
 11
7.468469699315642
 21
6.908837479317779
 31
0.0
  0
LINE
  5
250
330
1B
100
AcDbEntity
 67
     1
  8
Sketch Lines
  6
Continuous
 62
     7
370
    50
100
AcDbLine
 10
7.718469699315642
 20
6.908837479317782
 30
0.0
 11
7.718469699315642
 21
7.408837479317782
 31
0.0
  0
LINE
  5
251
330
1B
100
AcDbEntity
 67
     1
  8
Sketch Lines
  6
Continuous
 62
     7
370
    50
100
AcDbLine
 10
6.518469699315642
 20
7.093837479317775
 30
0.0
 11
7.018469699315642
 21
7.093837479317775
 31
0.0
  0
LINE
  5
252
330
1B
100
AcDbEntity
 67
     1
  8
Sketch Lines
  6
Continuous
 62
     7
370
    50
100
AcDbLine
 10
7.018469699315642
 20
7.093837479317775
 30
0.0
 11
7.018469699315642
 21
7.343837479317775
 31
0.0
  0
LINE
  5
253
330
1B
100
AcDbEntity
 67
     1
  8
Sketch Lines
  6
Continuous
 62
     7
370
    50
100
AcDbLine
 10
7.718469699315642
 20
7.408837479317782
 30
0.0
 11
7.46846969931564
 21
7.408837479317782
 31
0.0
  0
LINE
  5
254
330
1B
100
AcDbEntity
 67
     1
  8
Sketch Lines
  6
ACAD_ISO08W100
 62
     7
370
    25
100
AcDbLine
 10
9.483469699315643
 20
5.658837479317775
 30
0.0
 11
9.483469699315641
 21
8.188837479317776
 31
0.0
  0
CIRCLE
  5
255
330
1B
100
AcDbEntity
 67
     1
  8
Sketch Lines
  6
Continuous
 62
     7
370
    50
100
AcDbCircle
 10
9.483469699315641
 20
7.698837479317776
 30
0.0
 40
0.1
  0
CIRCLE
  5
256
330
1B
100
AcDbEntity
 67
     1
  8
Sketch Lines
  6
Continuous
 62
     7
370
    50
100
AcDbCircle
 10
8.85346969931564
 20
7.698837479317776
 30
0.0
 40
0.1
  0
LINE
  5
257
330
1B
100
AcDbEntity
 67
     1
  8
Sketch Lines
  6
ACAD_ISO08W100
 62
     7
370
    25
100
AcDbLine
 10
7.118469699315642
 20
7.158837479317713
 30
0.0
 11
14.76846969931564
 21
7.158837479317782
 31
0.0
  0
CIRCLE
  5
258
330
1B
100
AcDbEntity
 67
     1
  8
Sketch Lines
  6
Continuous
 62
     7
370
    50
100
AcDbCircle
 10
7.893469699315639
 20
10.42883747931777
 30
0.0
 40
0.1985
  0
CIRCLE
  5
259
330
1B
100
AcDbEntity
 67
     1
  8
Sketch Lines
  6
Continuous
 62
     7
370
    50
100
AcDbCircle
 10
10.09346969931564
 20
10.42883747931778
 30
0.0
 40
0.1985
  0
CIRCLE
  5
25A
330
1B
100
AcDbEntity
 67
     1
  8
Sketch Lines
  6
Continuous
 62
     7
370
    50
100
AcDbCircle
 10
8.34346969931564
 20
9.428837479317779
 30
0.0
 40
0.1
  0
CIRCLE
  5
25B
330
1B
100
AcDbEntity
 67
     1
  8
Sketch Lines
  6
Continuous
 62
     7
370
    50
100
AcDbCircle
 10
8.84346969931564
 20
9.428837479317779
 30
0.0
 40
0.1
  0
CIRCLE
  5
25C
330
1B
100
AcDbEntity
 67
     1
  8
Sketch Lines
  6
Continuous
 62
     7
370
    50
100
AcDbCircle
 10
9.34346969931564
 20
9.428837479317779
 30
0.0
 40
0.1
  0
CIRCLE
  5
25D
330
1B
100
AcDbEntity
 67
     1
  8
Sketch Lines
  6
Continuous
 62
     7
370
    50
100
AcDbCircle
 10
9.84346969931564
 20
9.428837479317779
 30
0.0
 40
0.1
  0
LINE
  5
25E
330
1B
100
AcDbEntity
 67
     1
  8
Sketch Lines
  6
Continuous
 62
     7
370
    50
100
AcDbLine
 10
8.413469699315641
 20
8.438837479317779
 30
0.0
 11
8.413469699315641
 21
7.938837479317776
 31
0.0
  0
LINE
  5
25F
330
1B
100
AcDbEntity
 67
     1
  8
Sketch Lines
  6
Continuous
 62
     7
370
    50
100
AcDbLine
 10
8.413469699315641
 20
7.938837479317776
 30
0.0
 11
8.663469699315641
 21
7.938837479317779
 31
0.0
  0
LINE
  5
260
330
1B
100
AcDbEntity
 67
     1
  8
Sketch Lines
  6
Continuous
 62
     7
370
    50
100
AcDbLine
 10
8.663469699315641
 20
7.938837479317779
 30
0.0
 11
8.663469699315641
 21
8.438837479317779
 31
0.0
  0
LINE
  5
261
330
1B
100
AcDbEntity
 67
     1
  8
Sketch Lines
  6
Continuous
 62
     7
370
    50
100
AcDbLine
 10
8.663469699315641
 20
8.438837479317779
 30
0.0
 11
8.413469699315641
 21
8.438837479317779
 31
0.0
  0
LINE
  5
262
330
1B
100
AcDbEntity
 67
     1
  8
Sketch Lines
  6
ACAD_ISO08W100
 62
     7
370
    25
100
AcDbLine
 10
7.593469699315641
 20
5.658837479317775
 30
0.0
 11
7.593469699315641
 21
8.188837479317776
 31
0.0
  0
LINE
  5
263
330
1B
100
AcDbEntity
 67
     1
  8
Sketch Lines
  6
ACAD_ISO08W100
 62
     7
370
    25
100
AcDbLine
 10
6.768469699315641
 20
8.728837479317775
 30
0.0
 11
6.768469699315643
 21
5.658837479317775
 31
0.0
  0
CIRCLE
  5
264
330
1B
100
AcDbEntity
 67
     1
  8
Sketch Lines
  6
Continuous
 62
     7
370
    50
100
AcDbCircle
 10
6.768469699315641
 20
7.698837479317776
 30
0.0
 40
0.1
  0
LINE
  5
265
330
1B
100
AcDbEntity
 67
     1
  8
Sketch Lines
  6
Continuous
 62
     7
370
    50
100
AcDbLine
 10
6.518469699315642
 20
8.373837479317774
 30
0.0
 11
6.518469699315642
 21
8.123837479317774
 31
0.0
  0
LINE
  5
266
330
1B
100
AcDbEntity
 67
     1
  8
Sketch Lines
  6
Continuous
 62
     7
370
    50
100
AcDbLine
 10
7.018469699315642
 20
8.373837479317774
 30
0.0
 11
6.518469699315642
 21
8.373837479317774
 31
0.0
  0
LINE
  5
267
330
1B
100
AcDbEntity
 67
     1
  8
Sketch Lines
  6
Continuous
 62
     7
370
    50
100
AcDbLine
 10
6.518469699315642
 20
8.123837479317774
 30
0.0
 11
7.018469699315642
 21
8.123837479317774
 31
0.0
  0
LINE
  5
268
330
1B
100
AcDbEntity
 67
     1
  8
Sketch Lines
  6
Continuous
 62
     7
370
    50
100
AcDbLine
 10
7.018469699315642
 20
8.123837479317774
 30
0.0
 11
7.018469699315642
 21
8.373837479317774
 31
0.0
  0
LINE
  5
269
330
1B
100
AcDbEntity
 67
     1
  8
Sketch Lines
  6
Continuous
 62
     7
370
    50
100
AcDbLine
 10
6.268469699315641
 20
8.123837479317774
 30
0.0
 11
6.268469699315641
 21
8.373837479317774
 31
0.0
  0
LINE
  5
26A
330
1B
100
AcDbEntity
 67
     1
  8
Sketch Lines
  6
ACAD_ISO08W100
 62
     7
370
    25
100
AcDbLine
 10
6.018469699315641
 20
8.248837479317776
 30
0.0
 11
7.432710851150563
 21
8.248837479317776
 31
0.0
  0
CIRCLE
  5
26B
330
1B
100
AcDbEntity
 67
     1
  8
Sketch Lines
  6
Continuous
 62
     7
370
    50
100
AcDbCircle
 10
6.34346969931564
 20
9.428837479317778
 30
0.0
 40
0.1
  0
CIRCLE
  5
26C
330
1B
100
AcDbEntity
 67
     1
  8
Sketch Lines
  6
Continuous
 62
     7
370
    50
100
AcDbCircle
 10
6.843469699315641
 20
9.428837479317778
 30
0.0
 40
0.1
  0
CIRCLE
  5
26D
330
1B
100
AcDbEntity
 67
     1
  8
Sketch Lines
  6
Continuous
 62
     7
370
    50
100
AcDbCircle
 10
7.343469699315639
 20
9.428837479317778
 30
0.0
 40
0.1
  0
CIRCLE
  5
26E
330
1B
100
AcDbEntity
 67
     1
  8
Sketch Lines
  6
Continuous
 62
     7
370
    50
100
AcDbCircle
 10
7.84346969931564
 20
9.428837479317779
 30
0.0
 40
0.1
  0
CIRCLE
  5
26F
330
1B
100
AcDbEntity
 67
     1
  8
Sketch Lines
  6
Continuous
 62
     7
370
    50
100
AcDbCircle
 10
6.768469699315641
 20
8.728837479317775
 30
0.0
 40
0.1
  0
LINE
  5
270
330
1B
100
AcDbEntity
 67
     1
  8
Sketch Lines
  6
ACAD_ISO08W100
 62
     7
370
    25
100
AcDbLine
 10
8.538469699315641
 20
8.728837479317775
 30
0.0
 11
8.538469699315642
 21
5.658837479317775
 31
0.0
  0
LINE
  5
271
330
1B
100
AcDbEntity
 67
     1
  8
Sketch Lines
  6
ACAD_ISO08W100
 62
     7
370
    25
100
AcDbLine
 10
7.908469699315642
 20
8.728837479317778
 30
0.0
 11
7.908469699315642
 21
5.658837479317775
 31
0.0
  0
LINE
  5
272
330
1B
100
AcDbEntity
 67
     1
  8
Sketch Lines
  6
ACAD_ISO08W100
 62
     7
370
    25
100
AcDbLine
 10
8.85346969931564
 20
8.188837479317776
 30
0.0
 11
8.85346969931564
 21
5.658837479317775
 31
0.0
  0
LINE
  5
273
330
1B
100
AcDbEntity
 67
     1
  8
Sketch Lines
  6
ACAD_ISO08W100
 62
     7
370
    25
100
AcDbLine
 10
8.223469699315641
 20
8.188837479317776
 30
0.0
 11
8.223469699315641
 21
5.658837479317775
 31
0.0
  0
CIRCLE
  5
274
330
1B
100
AcDbEntity
 67
     1
  8
Sketch Lines
  6
Continuous
 62
     7
370
    50
100
AcDbCircle
 10
8.223469699315641
 20
7.698837479317776
 30
0.0
 40
0.1
  0
CIRCLE
  5
275
330
1B
100
AcDbEntity
 67
     1
  8
Sketch Lines
  6
Continuous
 62
     7
370
    50
100
AcDbCircle
 10
7.593469699315641
 20
7.698837479317776
 30
0.0
 40
0.1
  0
LINE
  5
276
330
1B
100
AcDbEntity
 67
     1
  8
Sketch Lines
  6
Continuous
 62
     7
370
    50
100
AcDbLine
 10
7.783469699315641
 20
7.938837479317776
 30
0.0
 11
8.033469699315642
 21
7.938837479317777
 31
0.0
  0
LINE
  5
277
330
1B
100
AcDbEntity
 67
     1
  8
Sketch Lines
  6
Continuous
 62
     7
370
    50
100
AcDbLine
 10
7.783469699315641
 20
8.438837479317777
 30
0.0
 11
7.783469699315641
 21
7.938837479317776
 31
0.0
  0
LINE
  5
278
330
1B
100
AcDbEntity
 67
     1
  8
Sketch Lines
  6
Continuous
 62
     7
370
    50
100
AcDbLine
 10
8.033469699315642
 20
7.938837479317777
 30
0.0
 11
8.03346969931564
 21
8.438837479317777
 31
0.0
  0
LINE
  5
279
330
1B
100
AcDbEntity
 67
     1
  8
Sketch Lines
  6
Continuous
 62
     7
370
    50
100
AcDbLine
 10
8.03346969931564
 20
8.438837479317777
 30
0.0
 11
7.783469699315641
 21
8.438837479317777
 31
0.0
  0
CIRCLE
  5
27A
330
1B
100
AcDbEntity
 67
     1
  8
Sketch Lines
  6
Continuous
 62
     7
370
    50
100
AcDbCircle
 10
7.908469699315642
 20
8.728837479317775
 30
0.0
 40
0.1
  0
CIRCLE
  5
27B
330
1B
100
AcDbEntity
 67
     1
  8
Sketch Lines
  6
Continuous
 62
     7
370
    50
100
AcDbCircle
 10
8.538469699315642
 20
8.728837479317775
 30
0.0
 40
0.1
  0
CIRCLE
  5
27C
330
1B
100
AcDbEntity
 67
     1
  8
Sketch Lines
  6
Continuous
 62
     7
370
    50
100
AcDbCircle
 10
8.293469699315641
 20
12.25850218173031
 30
0.0
 40
0.068
  0
CIRCLE
  5
27D
330
1B
100
AcDbEntity
 67
     1
  8
Sketch Lines
  6
Continuous
 62
     7
370
    50
100
AcDbCircle
 10
6.34346969931564
 20
11.83683747931777
 30
0.0
 40
0.125
  0
CIRCLE
  5
27E
330
1B
100
AcDbEntity
 67
     1
  8
Sketch Lines
  6
Continuous
 62
     7
370
    50
100
AcDbCircle
 10
6.34346969931564
 20
10.98883747931778
 30
0.0
 40
0.1
  0
LINE
  5
27F
330
1B
100
AcDbEntity
 67
     1
  8
Sketch Lines
  6
ACAD_ISO08W100
 62
     7
370
    25
100
AcDbLine
 10
6.34346969931564
 20
9.428837479317778
 30
0.0
 11
6.34346969931564
 21
12.65883747931777
 31
0.0
  0
CIRCLE
  5
280
330
1B
100
AcDbEntity
 67
     1
  8
Sketch Lines
  6
Continuous
 62
     7
370
    50
100
AcDbCircle
 10
7.693469699315641
 20
11.83683747931777
 30
0.0
 40
0.184
  0
CIRCLE
  5
281
330
1B
100
AcDbEntity
 67
     1
  8
Sketch Lines
  6
Continuous
 62
     7
370
    50
100
AcDbCircle
 10
8.893469699315641
 20
11.83683747931777
 30
0.0
 40
0.184
  0
LINE
  5
282
330
1B
100
AcDbEntity
 67
     1
  8
Sketch Lines
  6
ACAD_ISO08W100
 62
     7
370
    25
100
AcDbLine
 10
14.39646969931564
 20
12.25850218173031
 30
0.0
 11
5.790469699315639
 21
12.25850218173031
 31
0.0
  0
LINE
  5
283
330
1B
100
AcDbEntity
 67
     1
  8
Sketch Lines
  6
ACAD_ISO08W100
 62
     7
370
    25
100
AcDbLine
 10
6.018469699315641
 20
5.658837479317775
 30
0.0
 11
6.018469699315641
 21
8.728837479317778
 31
0.0
  0
LINE
  5
284
330
1B
100
AcDbEntity
 67
     1
  8
Sketch Lines
  6
ACAD_ISO08W100
 62
     7
370
    25
100
AcDbLine
 10
5.468469699315641
 20
7.218837479317773
 30
0.0
 11
7.318469699315642
 21
7.218837479317769
 31
0.0
  0
LINE
  5
285
330
1B
100
AcDbEntity
 67
     1
  8
Sketch Lines
  6
Continuous
 62
     7
370
    50
100
AcDbLine
 10
6.268469699315641
 20
7.343837479317774
 30
0.0
 11
5.768469699315642
 21
7.343837479317774
 31
0.0
  0
LINE
  5
286
330
1B
100
AcDbEntity
 67
     1
  8
Sketch Lines
  6
Continuous
 62
     7
370
    50
100
AcDbLine
 10
5.768469699315642
 20
8.373837479317774
 30
0.0
 11
5.768469699315642
 21
8.123837479317774
 31
0.0
  0
LINE
  5
287
330
1B
100
AcDbEntity
 67
     1
  8
Sketch Lines
  6
Continuous
 62
     7
370
    50
100
AcDbLine
 10
6.268469699315641
 20
8.373837479317774
 30
0.0
 11
5.768469699315642
 21
8.373837479317774
 31
0.0
  0
LINE
  5
288
330
1B
100
AcDbEntity
 67
     1
  8
Sketch Lines
  6
Continuous
 62
     7
370
    50
100
AcDbLine
 10
5.768469699315642
 20
8.123837479317774
 30
0.0
 11
6.268469699315641
 21
8.123837479317774
 31
0.0
  0
CIRCLE
  5
289
330
1B
100
AcDbEntity
 67
     1
  8
Sketch Lines
  6
Continuous
 62
     7
370
    50
100
AcDbCircle
 10
6.018469699315641
 20
7.698837479317776
 30
0.0
 40
0.1
  0
CIRCLE
  5
28A
330
1B
100
AcDbEntity
 67
     1
  8
Sketch Lines
  6
Continuous
 62
     7
370
    50
100
AcDbCircle
 10
5.790469699315926
 20
6.496837479317775
 30
0.0
 40
0.068
  0
LINE
  5
28B
330
1B
100
AcDbEntity
 67
     1
  8
Sketch Lines
  6
Continuous
 62
     7
370
    50
100
AcDbLine
 10
5.768469699315642
 20
7.093837479317775
 30
0.0
 11
6.268469699315641
 21
7.093837479317775
 31
0.0
  0
LINE
  5
28C
330
1B
100
AcDbEntity
 67
     1
  8
Sketch Lines
  6
Continuous
 62
     7
370
    50
100
AcDbLine
 10
5.768469699315642
 20
7.343837479317774
 30
0.0
 11
5.768469699315642
 21
7.093837479317775
 31
0.0
  0
LINE
  5
28D
330
1B
100
AcDbEntity
 67
     1
  8
Sketch Lines
  6
Continuous
 62
     7
370
    50
100
AcDbLine
 10
6.268469699315641
 20
7.093837479317775
 30
0.0
 11
6.268469699315641
 21
7.343837479317774
 31
0.0
  0
LINE
  5
28E
330
1B
100
AcDbEntity
 67
     1
  8
Sketch Lines
  6
Continuous
 62
     7
370
    50
100
AcDbLine
 10
5.518469699315642
 20
6.158837479317781
 30
0.0
 11
14.66846969931564
 21
6.158837479317781
 31
0.0
  0
LINE
  5
28F
330
1B
100
AcDbEntity
 67
     1
  8
Sketch Lines
  6
ACAD_ISO08W100
 62
     7
370
    25
100
AcDbLine
 10
5.790469699315926
 20
6.496837479317775
 30
0.0
 11
14.39646969931564
 21
6.496837479317778
 31
0.0
  0
LINE
  5
290
330
1B
100
AcDbEntity
 67
     1
  8
Sketch Lines
  6
ACAD_ISO08W100
 62
     7
370
    25
100
AcDbLine
 10
14.76846969931564
 20
7.698837479317776
 30
0.0
 11
5.468469699315641
 21
7.698837479317774
 31
0.0
  0
CIRCLE
  5
291
330
1B
100
AcDbEntity
 67
     1
  8
Sketch Lines
  6
Continuous
 62
     7
370
    50
100
AcDbCircle
 10
6.34346969931564
 20
10.42883747931777
 30
0.0
 40
0.1475
  0
CIRCLE
  5
292
330
1B
100
AcDbEntity
 67
     1
  8
Sketch Lines
  6
Continuous
 62
     7
370
    50
100
AcDbCircle
 10
6.018469699315641
 20
8.728837479317773
 30
0.0
 40
0.1
  0
LINE
  5
293
330
1B
100
AcDbEntity
 67
     1
  8
Sketch Lines
  6
ACAD_ISO08W100
 62
     7
370
    25
100
AcDbLine
 10
5.468469699315641
 20
8.188837479317776
 30
0.0
 11
14.76846969931563
 21
8.188837479317777
 31
0.0
  0
LINE
  5
294
330
1B
100
AcDbEntity
 67
     1
  8
Sketch Lines
  6
ACAD_ISO08W100
 62
     7
370
    25
100
AcDbLine
 10
5.468469699315641
 20
8.728837479317773
 30
0.0
 11
14.76846969931564
 21
8.728837479317775
 31
0.0
  0
LINE
  5
295
330
1B
100
AcDbEntity
 67
     1
  8
Sketch Lines
  6
ACAD_ISO08W100
 62
     7
370
    25
100
AcDbLine
 10
5.46846969931564
 20
9.428837479317778
 30
0.0
 11
14.76846969931564
 21
9.428837479317783
 31
0.0
  0
LINE
  5
296
330
1B
100
AcDbEntity
 67
     1
  8
Sketch Lines
  6
ACAD_ISO08W100
 62
     7
370
    25
100
AcDbLine
 10
5.46846969931564
 20
10.42883747931777
 30
0.0
 11
14.76846969931563
 21
10.42883747931778
 31
0.0
  0
CIRCLE
  5
297
330
1B
100
AcDbEntity
 67
     1
  8
Sketch Lines
  6
Continuous
 62
     7
370
    50
100
AcDbCircle
 10
5.790469699315639
 20
12.25850218173031
 30
0.0
 40
0.068
  0
LINE
  5
298
330
1B
100
AcDbEntity
 67
     1
  8
Sketch Lines
  6
Continuous
 62
     7
370
    50
100
AcDbLine
 10
5.51846969931564
 20
12.58683747931778
 30
0.0
 11
5.518469699315642
 21
6.158837479317782
 31
0.0
  0
LINE
  5
299
330
1B
100
AcDbEntity
 67
     1
  8
Sketch Lines
  6
ACAD_ISO08W100
 62
     7
370
    25
100
AcDbLine
 10
5.790469699315639
 20
12.24883747931777
 30
0.0
 11
5.790469699315926
 21
6.496837479317775
 31
0.0
  0
LINE
  5
29A
330
1B
100
AcDbEntity
 67
     1
  8
Sketch Lines
  6
ACAD_ISO08W100
 62
     7
370
    25
100
AcDbLine
 10
5.46846969931564
 20
11.83683747931777
 30
0.0
 11
14.76846969931563
 21
11.83683747931778
 31
0.0
  0
LINE
  5
29B
330
1B
100
AcDbEntity
 67
     1
  8
Sketch Lines
  6
Continuous
 62
     7
370
    50
100
AcDbLine
 10
14.66846969931564
 20
12.58683747931778
 30
0.0
 11
5.518469699315639
 21
12.58683747931778
 31
0.0
  0
DIMENSION
  5
29C
330
1B
100
AcDbEntity
 67
     1
  8
Dimensions
  6
Continuous
 62
     7
370
    25
100
AcDbDimension
  2
*D4
 10
6.843469699315641
 20
9.039967588123838
 30
0.0
 11
5.019026327474483
 21
9.039967588123838
 31
0.0
 70
   160
  1
<>
 71
     5
 42
0.5000000000000009
  3
ANSI - ALIGNED
100
AcDbAlignedDimension
 13
6.34346969931564
 23
9.428837479317778
 33
0.0
 14
6.843469699315641
 24
9.428837479317778
 34
0.0
 50
180.0
100
AcDbRotatedDimension
1001
ACAD
1000
DSTYLE
1002
{
1070
    74
1070
     0
1070
   271
1070
     3
1070
   144
1040
1.0
1070
   340
1005
5F
1070
    47
1040
0.0
1070
    48
1040
0.0
1002
}
  0
DIMENSION
  5
341
330
1B
100
AcDbEntity
 67
     1
  8
Dimensions
  6
Continuous
 62
     7
370
    25
100
AcDbDimension
  2
*D5
 10
5.51846969931564
 20
16.28762488089258
 30
0.0
 11
10.41534906836006
 21
16.28762488089258
 31
0.0
 70
   160
  1
<>
 71
     5
 42
9.150000000000002
  3
ANSI - ALIGNED
100
AcDbAlignedDimension
 13
14.66846969931564
 23
12.58683747931778
 33
0.0
 14
5.51846969931564
 24
12.58683747931778
 34
0.0
 50
180.0
100
AcDbRotatedDimension
1001
ACAD
1000
DSTYLE
1002
{
1070
    74
1070
     0
1070
   271
1070
     3
1070
   144
1040
1.0
1070
   340
1005
5F
1070
    47
1040
0.0
1070
    48
1040
0.0
1002
}
  0
DIMENSION
  5
3E5
330
1B
100
AcDbEntity
 67
     1
  8
Dimensions
  6
Continuous
 62
     7
370
    25
100
AcDbDimension
  2
*D6
 10
5.51846969931564
 20
16.01506690579473
 30
0.0
 11
13.18384347409427
 21
16.01506690579473
 31
0.0
 70
   160
  1
<>
 71
     5
 42
8.878
  3
ANSI - ALIGNED
100
AcDbAlignedDimension
 13
14.39646969931564
 23
12.25850218173031
 33
0.0
 14
5.51846969931564
 24
12.58683747931778
 34
0.0
 50
0.0000000000000175
100
AcDbRotatedDimension
1001
ACAD
1000
DSTYLE
1002
{
1070
    74
1070
     0
1070
   271
1070
     3
1070
   144
1040
1.0
1070
   340
1005
5F
1070
    47
1040
0.0
1070
    48
1040
0.0
1002
}
  0
DIMENSION
  5
489
330
1B
100
AcDbEntity
 67
     1
  8
Dimensions
  6
Continuous
 62
     7
370
    25
100
AcDbDimension
  2
*D7
 10
5.51846969931564
 20
15.66682861392929
 30
0.0
 11
12.50477880853682
 21
15.66682861392929
 31
0.0
 70
   160
  1
<>
 71
     5
 42
8.324999999999999
  3
ANSI - ALIGNED
100
AcDbAlignedDimension
 13
13.84346969931564
 23
10.42883747931778
 33
0.0
 14
5.51846969931564
 24
12.58683747931778
 34
0.0
 50
0.0000000000000175
100
AcDbRotatedDimension
1001
ACAD
1000
DSTYLE
1002
{
1070
    74
1070
     0
1070
   271
1070
     3
1070
   144
1040
1.0
1070
   340
1005
5F
1070
    47
1040
0.0
1070
    48
1040
0.0
1002
}
  0
DIMENSION
  5
52D
330
1B
100
AcDbEntity
 67
     1
  8
Dimensions
  6
Continuous
 62
     7
370
    25
100
AcDbDimension
  2
*D8
 10
5.51846969931564
 20
15.40564989503022
 30
0.0
 11
11.77347839947495
 21
15.40564989503022
 31
0.0
 70
   160
  1
<>
 71
     5
 42
8.175
  3
ANSI - ALIGNED
100
AcDbAlignedDimension
 13
13.69346969931564
 23
11.83683747931778
 33
0.0
 14
5.51846969931564
 24
12.58683747931778
 34
0.0
 50
0.0000000000000175
100
AcDbRotatedDimension
1001
ACAD
1000
DSTYLE
1002
{
1070
    74
1070
     0
1070
   271
1070
     3
1070
   144
1040
1.0
1070
   340
1005
5F
1070
    47
1040
0.0
1070
    48
1040
0.0
1002
}
  0
DIMENSION
  5
5D1
330
1B
100
AcDbEntity
 67
     1
  8
Dimensions
  6
Continuous
 62
     7
370
    25
100
AcDbDimension
  2
*D9
 10
5.51846969931564
 20
15.10964734694459
 30
0.0
 11
11.11182564841898
 21
15.10964734694459
 31
0.0
 70
   160
  1
<>
 71
     5
 42
6.975
  3
ANSI - ALIGNED
100
AcDbAlignedDimension
 13
12.49346969931564
 23
11.83683747931777
 33
0.0
 14
5.51846969931564
 24
12.58683747931778
 34
0.0
 50
0.0000000000000175
100
AcDbRotatedDimension
1001
ACAD
1000
DSTYLE
1002
{
1070
    74
1070
     0
1070
   271
1070
     3
1070
   144
1040
1.0
1070
   340
1005
5F
1070
    47
1040
0.0
1070
    48
1040
0.0
1002
}
  0
DIMENSION
  5
675
330
1B
100
AcDbEntity
 67
     1
  8
Dimensions
  6
Continuous
 62
     7
370
    25
100
AcDbDimension
  2
*D10
 10
5.51846969931564
 20
14.88329245723206
 30
0.0
 11
10.24122992334532
 21
14.88329245723206
 31
0.0
 70
   160
  1
<>
 71
     5
 42
6.374999999999999
  3
ANSI - ALIGNED
100
AcDbAlignedDimension
 13
11.89346969931563
 23
12.25850218173031
 33
0.0
 14
5.51846969931564
 24
12.58683747931778
 34
0.0
 50
0.0000000000000175
100
AcDbRotatedDimension
1001
ACAD
1000
DSTYLE
1002
{
1070
    74
1070
     0
1070
   271
1070
     3
1070
   144
1040
1.0
1070
   340
1005
5F
1070
    47
1040
0.0
1070
    48
1040
0.0
1002
}
  0
DIMENSION
  5
719
330
1B
100
AcDbEntity
 67
     1
  8
Dimensions
  6
Continuous
 62
     7
370
    25
100
AcDbDimension
  2
*D11
 10
5.51846969931564
 20
14.62211373833298
 30
0.0
 11
9.074631651746633
 21
14.62211373833298
 31
0.0
 70
   160
  1
<>
 71
     5
 42
5.775000000000001
  3
ANSI - ALIGNED
100
AcDbAlignedDimension
 13
11.29346969931564
 23
11.83683747931777
 33
0.0
 14
5.51846969931564
 24
12.58683747931778
 34
0.0
 50
0.0000000000000175
100
AcDbRotatedDimension
1001
ACAD
1000
DSTYLE
1002
{
1070
    74
1070
     0
1070
   271
1070
     3
1070
   144
1040
1.0
1070
   340
1005
5F
1070
    47
1040
0.0
1070
    48
1040
0.0
1002
}
  0
DIMENSION
  5
7BD
330
1B
100
AcDbEntity
 67
     1
  8
Dimensions
  6
Continuous
 62
     7
370
    25
100
AcDbDimension
  2
*D12
 10
5.51846969931564
 20
14.11383356402059
 30
0.0
 11
7.215816464863204
 21
14.11383356402059
 31
0.0
 70
   160
  1
<>
 71
     5
 42
3.375
  3
ANSI - ALIGNED
100
AcDbAlignedDimension
 13
8.893469699315641
 23
11.83683747931777
 33
0.0
 14
5.51846969931564
 24
12.58683747931778
 34
0.0
 50
0.0000000000000175
100
AcDbRotatedDimension
1001
ACAD
1000
DSTYLE
1002
{
1070
    74
1070
     0
1070
   271
1070
     3
1070
   144
1040
1.0
1070
   340
1005
5F
1070
    47
1040
0.0
1070
    48
1040
0.0
1002
}
  0
DIMENSION
  5
861
330
1B
100
AcDbEntity
 67
     1
  8
Dimensions
  6
Continuous
 62
     7
370
    25
100
AcDbDimension
  2
*D13
 10
5.51846969931564
 20
13.82116566704247
 30
0.0
 11
6.16684193000063
 21
13.82116566704247
 31
0.0
 70
   160
  1
<>
 71
     5
 42
2.775000000000001
  3
ANSI - ALIGNED
100
AcDbAlignedDimension
 13
8.293469699315641
 23
12.25850218173031
 33
0.0
 14
5.51846969931564
 24
12.58683747931778
 34
0.0
 50
0.0000000000000175
100
AcDbRotatedDimension
1001
ACAD
1000
DSTYLE
1002
{
1070
    74
1070
     0
1070
   271
1070
     3
1070
   144
1040
1.0
1070
   340
1005
5F
1070
    47
1040
0.0
1070
    48
1040
0.0
1002
}
  0
DIMENSION
  5
905
330
1B
100
AcDbEntity
 67
     1
  8
Dimensions
  6
Continuous
 62
     7
370
    25
100
AcDbDimension
  2
*D14
 10
5.51846969931564
 20
13.33363205843086
 30
0.0
 11
6.84590659555808
 21
13.33363205843086
 31
0.0
 70
   160
  1
<>
 71
     5
 42
2.175
  3
ANSI - ALIGNED
100
AcDbAlignedDimension
 13
7.693469699315641
 23
11.83683747931777
 33
0.0
 14
5.51846969931564
 24
12.58683747931778
 34
0.0
 50
0.0000000000000175
100
AcDbRotatedDimension
1001
ACAD
1000
DSTYLE
1002
{
1070
    74
1070
     0
1070
   271
1070
     3
1070
   144
1040
1.0
1070
   340
1005
5F
1070
    47
1040
0.0
1070
    48
1040
0.0
1002
}
  0
DIMENSION
  5
9A9
330
1B
100
AcDbEntity
 67
     1
  8
Dimensions
  6
Continuous
 62
     7
370
    25
100
AcDbDimension
  2
*D15
 10
5.51846969931564
 20
13.08986525412506
 30
0.0
 11
4.721653026378365
 21
13.08986525412506
 31
0.0
 70
   160
  1
<>
 71
     5
 42
0.8250000000000001
  3
ANSI - ALIGNED
100
AcDbAlignedDimension
 13
6.34346969931564
 23
11.83683747931777
 33
0.0
 14
5.51846969931564
 24
12.58683747931778
 34
0.0
 50
0.0000000000000175
100
AcDbRotatedDimension
1001
ACAD
1000
DSTYLE
1002
{
1070
    74
1070
     0
1070
   271
1070
     3
1070
   144
1040
1.0
1070
   340
1005
5F
1070
    47
1040
0.0
1070
    48
1040
0.0
1002
}
  0
DIMENSION
  5
A4D
330
1B
100
AcDbEntity
 67
     1
  8
Dimensions
  6
Continuous
 62
     7
370
    25
100
AcDbDimension
  2
*D16
 10
5.51846969931564
 20
12.79386270603944
 30
0.0
 11
4.634593453871
 21
12.79386270603944
 31
0.0
 70
   160
  1
<>
 71
     5
 42
0.2719999999999993
  3
ANSI - ALIGNED
100
AcDbAlignedDimension
 13
5.790469699315639
 23
12.25850218173031
 33
0.0
 14
5.51846969931564
 24
12.58683747931778
 34
0.0
 50
0.0000000000000175
100
AcDbRotatedDimension
1001
ACAD
1000
DSTYLE
1002
{
1070
    74
1070
     0
1070
   271
1070
     3
1070
   144
1040
1.0
1070
   340
1005
5F
1070
    47
1040
0.0
1070
    48
1040
0.0
1002
}
  0
DIMENSION
  5
AF1
330
1B
100
AcDbEntity
 67
     1
  8
Dimensions
  6
Continuous
 62
     7
370
    25
100
AcDbDimension
  2
*D17
 10
18.82315622934068
 20
6.15883747931778
 30
0.0
 11
18.82315622934068
 21
9.429229805273344
 31
0.0
 70
   160
  1
<>
 71
     5
 42
6.427999999999999
  3
ANSI - ALIGNED
100
AcDbAlignedDimension
 13
14.66846969931564
 23
12.58683747931778
 33
0.0
 14
14.66846969931564
 24
6.158837479317781
 34
0.0
 50
270.0
100
AcDbRotatedDimension
1001
ACAD
1000
DSTYLE
1002
{
1070
    74
1070
     0
1070
   271
1070
     3
1070
   144
1040
1.0
1070
   340
1005
5F
1070
    47
1040
0.0
1070
    48
1040
0.0
1002
}
  0
DIMENSION
  5
B95
330
1B
100
AcDbEntity
 67
     1
  8
Dimensions
  6
Continuous
 62
     7
370
    25
100
AcDbDimension
  2
*D18
 10
14.95850946862826
 20
6.158837479317781
 30
0.0
 11
14.95850946862825
 21
5.380085733516502
 31
0.0
 70
   160
  1
<>
 71
     5
 42
0.3379999999999974
  3
ANSI - ALIGNED
100
AcDbAlignedDimension
 13
14.39646969931564
 23
6.496837479317778
 33
0.0
 14
14.66846969931564
 24
6.158837479317781
 34
0.0
 50
90.00000000000003
100
AcDbRotatedDimension
1001
ACAD
1000
DSTYLE
1002
{
1070
    74
1070
     0
1070
   271
1070
     3
1070
   144
1040
1.0
1070
   340
1005
5F
1070
    47
1040
0.0
1070
    48
1040
0.0
1002
}
  0
DIMENSION
  5
C3F
330
1B
100
AcDbEntity
 67
     1
  8
Dimensions
  6
Continuous
 62
     7
370
    25
100
AcDbDimension
  2
*D19
 10
15.38266024755962
 20
6.158837479317781
 30
0.0
 11
15.38266024755962
 21
6.710623689541334
 31
0.0
 70
   160
  1
<>
 71
     5
 42
1.0
  3
ANSI - ALIGNED
100
AcDbAlignedDimension
 13
14.16846969931564
 23
7.158837479317782
 33
0.0
 14
14.66846969931564
 24
6.158837479317781
 34
0.0
 50
90.0
100
AcDbRotatedDimension
1001
ACAD
1000
DSTYLE
1002
{
1070
    74
1070
     0
1070
   271
1070
     3
1070
   144
1040
1.0
1070
   340
1005
5F
1070
    47
1040
0.0
1070
    48
1040
0.0
1002
}
  0
DIMENSION
  5
CE3
330
1B
100
AcDbEntity
 67
     1
  8
Dimensions
  6
Continuous
 62
     7
370
    25
100
AcDbDimension
  2
*D20
 10
18.43917230280262
 20
6.15883747931778
 30
0.0
 11
18.43917230280262
 21
11.4259461614607
 31
0.0
 70
   160
  1
<>
 71
     5
 42
6.099664702412529
  3
ANSI - ALIGNED
100
AcDbAlignedDimension
 13
14.39646969931564
 23
12.25850218173031
 33
0.0
 14
14.66846969931564
 24
6.158837479317781
 34
0.0
 50
270.0
100
AcDbRotatedDimension
1001
ACAD
1000
DSTYLE
1002
{
1070
    74
1070
     0
1070
   271
1070
     3
1070
   144
1040
1.0
1070
   340
1005
5F
1070
    47
1040
0.0
1070
    48
1040
0.0
1002
}
  0
DIMENSION
  5
D87
330
1B
100
AcDbEntity
 67
     1
  8
Dimensions
  6
Continuous
 62
     7
370
    25
100
AcDbDimension
  2
*D21
 10
17.66532294557028
 20
6.158837479317781
 30
0.0
 11
17.66532294557028
 21
9.819259911879353
 31
0.0
 70
   160
  1
<>
 71
     5
 42
4.27
  3
ANSI - ALIGNED
100
AcDbAlignedDimension
 13
14.76846969931563
 23
10.42883747931778
 33
0.0
 14
14.66846969931564
 24
6.158837479317781
 34
0.0
 50
90.00000000000003
100
AcDbRotatedDimension
1001
ACAD
1000
DSTYLE
1002
{
1070
    74
1070
     0
1070
   271
1070
     3
1070
   144
1040
1.0
1070
   340
1005
5F
1070
    47
1040
0.0
1070
    48
1040
0.0
1002
}
  0
DIMENSION
  5
E2B
330
1B
100
AcDbEntity
 67
     1
  8
Dimensions
  6
Continuous
 62
     7
370
    25
100
AcDbDimension
  2
*D22
 10
17.34050532833724
 20
6.158837479317781
 30
0.0
 11
17.34050532833724
 21
8.84480704345824
 31
0.0
 70
   160
  1
<>
 71
     5
 42
3.270000000000002
  3
ANSI - ALIGNED
100
AcDbAlignedDimension
 13
14.76846969931564
 23
9.428837479317783
 33
0.0
 14
14.66846969931564
 24
6.158837479317781
 34
0.0
 50
90.00000000000003
100
AcDbRotatedDimension
1001
ACAD
1000
DSTYLE
1002
{
1070
    74
1070
     0
1070
   271
1070
     3
1070
   144
1040
1.0
1070
   340
1005
5F
1070
    47
1040
0.0
1070
    48
1040
0.0
1002
}
  0
DIMENSION
  5
ECF
330
1B
100
AcDbEntity
 67
     1
  8
Dimensions
  6
Continuous
 62
     7
370
    25
100
AcDbDimension
  2
*D23
 10
16.82621076771825
 20
6.158837479317781
 30
0.0
 11
16.82621076771825
 21
7.870354175037125
 31
0.0
 70
   160
  1
<>
 71
     5
 42
2.569999999999994
  3
ANSI - ALIGNED
100
AcDbAlignedDimension
 13
14.76846969931564
 23
8.728837479317775
 33
0.0
 14
14.66846969931564
 24
6.158837479317781
 34
0.0
 50
90.00000000000003
100
AcDbRotatedDimension
1001
ACAD
1000
DSTYLE
1002
{
1070
    74
1070
     0
1070
   271
1070
     3
1070
   144
1040
1.0
1070
   340
1005
5F
1070
    47
1040
0.0
1070
    48
1040
0.0
1002
}
  0
DIMENSION
  5
F73
330
1B
100
AcDbEntity
 67
     1
  8
Dimensions
  6
Continuous
 62
     7
370
    25
100
AcDbDimension
  2
*D24
 10
1.817682297740842
 20
10.98883747931778
 30
0.0
 11
1.81768229774084
 21
8.789122349586918
 31
0.0
 70
   160
  1
<>
 71
     5
 42
4.830000000000001
  3
ANSI - ALIGNED
100
AcDbAlignedDimension
 13
5.518469699315642
 23
6.158837479317781
 33
0.0
 14
6.34346969931564
 24
10.98883747931778
 34
0.0
 50
90.0
100
AcDbRotatedDimension
1001
ACAD
1000
DSTYLE
1002
{
1070
    74
1070
     0
1070
   271
1070
     3
1070
   144
1040
1.0
1070
   340
1005
5F
1070
    47
1040
0.0
1070
    48
1040
0.0
1002
}
  0
DIMENSION
  5
1017
330
1B
100
AcDbEntity
 67
     1
  8
Dimensions
  6
Continuous
 62
     7
370
    25
100
AcDbDimension
  2
*D25
 10
2.684459029706018
 20
6.158837479317781
 30
0.0
 11
2.684459029706018
 21
7.361345352938629
 31
0.0
 70
   160
  1
<>
 71
     5
 42
2.089999999999996
  3
ANSI - ALIGNED
100
AcDbAlignedDimension
 13
6.018469699315641
 23
8.248837479317776
 33
0.0
 14
5.518469699315642
 24
6.158837479317781
 34
0.0
 50
90.0
100
AcDbRotatedDimension
1001
ACAD
1000
DSTYLE
1002
{
1070
    74
1070
     0
1070
   271
1070
     3
1070
   144
1040
1.0
1070
   340
1005
5F
1070
    47
1040
0.0
1070
    48
1040
0.0
1002
}
  0
DIMENSION
  5
10BB
330
1B
100
AcDbEntity
 67
     1
  8
Dimensions
  6
Continuous
 62
     7
370
    25
100
AcDbDimension
  2
*D26
 10
3.520230925776726
 20
6.158837479317781
 30
0.0
 11
3.520230925776725
 21
6.734516427580842
 31
0.0
 70
   160
  1
<>
 71
     5
 42
1.059999999999992
  3
ANSI - ALIGNED
100
AcDbAlignedDimension
 13
5.468469699315641
 23
7.218837479317773
 33
0.0
 14
5.518469699315642
 24
6.158837479317781
 34
0.0
 50
90.00000000000003
100
AcDbRotatedDimension
1001
ACAD
1000
DSTYLE
1002
{
1070
    74
1070
     0
1070
   271
1070
     3
1070
   144
1040
1.0
1070
   340
1005
5F
1070
    47
1040
0.0
1070
    48
1040
0.0
1002
}
  0
DIMENSION
  5
115F
330
1B
100
AcDbEntity
 67
     1
  8
Dimensions
  6
Continuous
 62
     7
370
    25
100
AcDbDimension
  2
*D27
 10
16.42018874617695
 20
6.158837479317781
 30
0.0
 11
16.42018874617695
 21
7.572604687464013
 31
0.0
 70
   160
  1
(<>)
 71
     5
 42
2.089999999999995
  3
ANSI - ALIGNED
100
AcDbAlignedDimension
 13
14.76846969931563
 23
8.248837479317776
 33
0.0
 14
14.66846969931564
 24
6.158837479317781
 34
0.0
 50
90.00000000000003
100
AcDbRotatedDimension
1001
ACAD
1000
DSTYLE
1002
{
1070
    74
1070
     0
1070
   271
1070
     3
1070
   144
1040
1.0
1070
   340
1005
5F
1070
    47
1040
0.0
1070
    48
1040
0.0
1002
}
  0
DIMENSION
  5
1203
330
1B
100
AcDbEntity
 67
     1
  8
Dimensions
  6
Continuous
 62
     7
370
    25
100
AcDbDimension
  2
*D28
 10
15.87415967352835
 20
6.158837479317781
 30
0.0
 11
15.87415967352834
 21
7.278919883225426
 31
0.0
 70
   160
  1
<>
 71
     5
 42
2.029999999999996
  3
ANSI - ALIGNED
100
AcDbAlignedDimension
 13
13.22346969931564
 23
8.188837479317777
 33
0.0
 14
14.66846969931564
 24
6.158837479317781
 34
0.0
 50
90.0
100
AcDbRotatedDimension
1001
ACAD
1000
DSTYLE
1002
{
1070
    74
1070
     0
1070
   271
1070
     3
1070
   144
1040
1.0
1070
   340
1005
5F
1070
    47
1040
0.0
1070
    48
1040
0.0
1002
}
  0
DIMENSION
  5
12A7
330
1B
100
AcDbEntity
 67
     1
  8
Dimensions
  6
Continuous
 62
     7
370
    25
100
AcDbDimension
  2
*D29
 10
5.518469699315642
 20
0.8667012096482253
 30
0.0
 11
13.39278644811196
 21
0.8667012096482253
 31
0.0
 70
   160
  1
<>
 71
     5
 42
8.650000000000002
  3
ANSI - ALIGNED
100
AcDbAlignedDimension
 13
14.16846969931564
 23
5.658837479317775
 33
0.0
 14
5.518469699315642
 24
6.158837479317782
 34
0.0
 50
0.0000000000000035
100
AcDbRotatedDimension
1001
ACAD
1000
DSTYLE
1002
{
1070
    74
1070
     0
1070
   271
1070
     3
1070
   144
1040
1.0
1070
   340
1005
5F
1070
    47
1040
0.0
1070
    48
1040
0.0
1002
}
  0
DIMENSION
  5
134B
330
1B
100
AcDbEntity
 67
     1
  8
Dimensions
  6
Continuous
 62
     7
370
    25
100
AcDbDimension
  2
*D30
 10
5.518469699315642
 20
1.19752758692039
 30
0.0
 11
12.62666221004714
 21
1.19752758692039
 31
0.0
 70
   160
  1
<>
 71
     5
 42
8.019999999999999
  3
ANSI - ALIGNED
100
AcDbAlignedDimension
 13
13.53846969931564
 23
5.658837479317775
 33
0.0
 14
5.518469699315642
 24
6.158837479317782
 34
0.0
 50
180.0
100
AcDbRotatedDimension
1001
ACAD
1000
DSTYLE
1002
{
1070
    74
1070
     0
1070
   271
1070
     3
1070
   144
1040
1.0
1070
   340
1005
5F
1070
    47
1040
0.0
1070
    48
1040
0.0
1002
}
  0
DIMENSION
  5
13EF
330
1B
100
AcDbEntity
 67
     1
  8
Dimensions
  6
Continuous
 62
     7
370
    25
100
AcDbDimension
  2
*D31
 10
5.518469699315642
 20
1.485609132861083
 30
0.0
 11
12.05206903149853
 21
1.485609132861083
 31
0.0
 70
   160
  1
<>
 71
     5
 42
7.705
  3
ANSI - ALIGNED
100
AcDbAlignedDimension
 13
13.22346969931564
 23
5.658837479317775
 33
0.0
 14
5.518469699315642
 24
6.158837479317782
 34
0.0
 50
0.0000000000000035
100
AcDbRotatedDimension
1001
ACAD
1000
DSTYLE
1002
{
1070
    74
1070
     0
1070
   271
1070
     3
1070
   144
1040
1.0
1070
   340
1005
5F
1070
    47
1040
0.0
1070
    48
1040
0.0
1002
}
  0
DIMENSION
  5
1493
330
1B
100
AcDbEntity
 67
     1
  8
Dimensions
  6
Continuous
 62
     7
370
    25
100
AcDbDimension
  2
*D32
 10
5.518469699315642
 20
1.721829605302028
 30
0.0
 11
11.4252401094455
 21
1.721829605302028
 31
0.0
 70
   160
  1
<>
 71
     5
 42
7.389999999999999
  3
ANSI - ALIGNED
100
AcDbAlignedDimension
 13
12.90846969931564
 23
5.658837479317775
 33
0.0
 14
5.518469699315642
 24
6.158837479317782
 34
0.0
 50
0.0000000000000035
100
AcDbRotatedDimension
1001
ACAD
1000
DSTYLE
1002
{
1070
    74
1070
     0
1070
   271
1070
     3
1070
   144
1040
1.0
1070
   340
1005
5F
1070
    47
1040
0.0
1070
    48
1040
0.0
1002
}
  0
DIMENSION
  5
1537
330
1B
100
AcDbEntity
 67
     1
  8
Dimensions
  6
Continuous
 62
     7
370
    25
100
AcDbDimension
  2
*D33
 10
5.518469699315642
 20
1.958050077742973
 30
0.0
 11
10.76358735838953
 21
1.958050077742973
 31
0.0
 70
   160
  1
<>
 71
     5
 42
7.075
  3
ANSI - ALIGNED
100
AcDbAlignedDimension
 13
12.59346969931564
 23
5.658837479317775
 33
0.0
 14
5.518469699315642
 24
6.158837479317782
 34
0.0
 50
0.0000000000000035
100
AcDbRotatedDimension
1001
ACAD
1000
DSTYLE
1002
{
1070
    74
1070
     0
1070
   271
1070
     3
1070
   144
1040
1.0
1070
   340
1005
5F
1070
    47
1040
0.0
1070
    48
1040
0.0
1002
}
  0
DIMENSION
  5
15DB
330
1B
100
AcDbEntity
 67
     1
  8
Dimensions
  6
Continuous
 62
     7
370
    25
100
AcDbDimension
  2
*D34
 10
5.518469699315642
 20
2.172594804143613
 30
0.0
 11
10.10193460733355
 21
2.172594804143613
 31
0.0
 70
   160
  1
<>
 71
     5
 42
6.485
  3
ANSI - ALIGNED
100
AcDbAlignedDimension
 13
12.00346969931564
 23
5.658837479317775
 33
0.0
 14
5.518469699315642
 24
6.158837479317782
 34
0.0
 50
0.0000000000000035
100
AcDbRotatedDimension
1001
ACAD
1000
DSTYLE
1002
{
1070
    74
1070
     0
1070
   271
1070
     3
1070
   144
1040
1.0
1070
   340
1005
5F
1070
    47
1040
0.0
1070
    48
1040
0.0
1002
}
  0
DIMENSION
  5
167F
330
1B
100
AcDbEntity
 67
     1
  8
Dimensions
  6
Continuous
 62
     7
370
    25
100
AcDbDimension
  2
*D35
 10
5.518469699315642
 20
2.381537779262874
 30
0.0
 11
9.179103138755479
 21
2.381537779262874
 31
0.0
 70
   160
  1
<>
 71
     5
 42
5.855000000000001
  3
ANSI - ALIGNED
100
AcDbAlignedDimension
 13
11.37346969931564
 23
5.658837479317775
 33
0.0
 14
5.518469699315642
 24
6.158837479317782
 34
0.0
 50
180.0
100
AcDbRotatedDimension
1001
ACAD
1000
DSTYLE
1002
{
1070
    74
1070
     0
1070
   271
1070
     3
1070
   144
1040
1.0
1070
   340
1005
5F
1070
    47
1040
0.0
1070
    48
1040
0.0
1002
}
  0
DIMENSION
  5
1723
330
1B
100
AcDbEntity
 67
     1
  8
Dimensions
  6
Continuous
 62
     7
370
    25
100
AcDbDimension
  2
*D36
 10
5.518469699315642
 20
2.590480754382137
 30
0.0
 11
8.343331242684772
 21
2.590480754382137
 31
0.0
 70
   160
  1
<>
 71
     5
 42
5.54
  3
ANSI - ALIGNED
100
AcDbAlignedDimension
 13
11.05846969931564
 23
5.658837479317775
 33
0.0
 14
5.518469699315642
 24
6.158837479317782
 34
0.0
 50
0.0000000000000035
100
AcDbRotatedDimension
1001
ACAD
1000
DSTYLE
1002
{
1070
    74
1070
     0
1070
   271
1070
     3
1070
   144
1040
1.0
1070
   340
1005
5F
1070
    47
1040
0.0
1070
    48
1040
0.0
1002
}
  0
DIMENSION
  5
17C7
330
1B
100
AcDbEntity
 67
     1
  8
Dimensions
  6
Continuous
 62
     7
370
    25
100
AcDbDimension
  2
*D37
 10
5.518469699315642
 20
2.782011814908128
 30
0.0
 11
7.699090406130268
 21
2.782011814908128
 31
0.0
 70
   160
  1
<>
 71
     5
 42
5.225
  3
ANSI - ALIGNED
100
AcDbAlignedDimension
 13
10.74346969931564
 23
5.658837479317775
 33
0.0
 14
5.518469699315642
 24
6.158837479317782
 34
0.0
 50
0.0000000000000035
100
AcDbRotatedDimension
1001
ACAD
1000
DSTYLE
1002
{
1070
    74
1070
     0
1070
   271
1070
     3
1070
   144
1040
1.0
1070
   340
1005
5F
1070
    47
1040
0.0
1070
    48
1040
0.0
1002
}
  0
DIMENSION
  5
186B
330
1B
100
AcDbEntity
 67
     1
  8
Dimensions
  6
Continuous
 62
     7
370
    25
100
AcDbDimension
  2
*D38
 10
5.518469699315642
 20
2.984555765314583
 30
0.0
 11
8.175019711284114
 21
2.984555765314583
 31
0.0
 70
   160
  1
<>
 71
     5
 42
4.909999999999999
  3
ANSI - ALIGNED
100
AcDbAlignedDimension
 13
10.42846969931564
 23
5.658837479317775
 33
0.0
 14
5.518469699315642
 24
6.158837479317782
 34
0.0
 50
0.0000000000000035
100
AcDbRotatedDimension
1001
ACAD
1000
DSTYLE
1002
{
1070
    74
1070
     0
1070
   271
1070
     3
1070
   144
1040
1.0
1070
   340
1005
5F
1070
    47
1040
0.0
1070
    48
1040
0.0
1002
}
  0
DIMENSION
  5
190F
330
1B
100
AcDbEntity
 67
     1
  8
Dimensions
  6
Continuous
 62
     7
370
    25
100
AcDbDimension
  2
*D39
 10
5.518469699315642
 20
3.174032711952023
 30
0.0
 11
7.230556991958767
 21
3.174032711952023
 31
0.0
 70
   160
  1
<>
 71
     5
 42
4.594999999999999
  3
ANSI - ALIGNED
100
AcDbAlignedDimension
 13
10.11346969931564
 23
5.658837479317775
 33
0.0
 14
5.518469699315642
 24
6.158837479317782
 34
0.0
 50
0.0000000000000035
100
AcDbRotatedDimension
1001
ACAD
1000
DSTYLE
1002
{
1070
    74
1070
     0
1070
   271
1070
     3
1070
   144
1040
1.0
1070
   340
1005
5F
1070
    47
1040
0.0
1070
    48
1040
0.0
1002
}
  0
DIMENSION
  5
19B3
330
1B
100
AcDbEntity
 67
     1
  8
Dimensions
  6
Continuous
 62
     7
370
    25
100
AcDbDimension
  2
*D40
 10
5.518469699315642
 20
3.579142977763018
 30
0.0
 11
6.580822195735477
 21
3.579142977763018
 31
0.0
 70
   160
  1
<>
 71
     5
 42
4.279999999999998
  3
ANSI - ALIGNED
100
AcDbAlignedDimension
 13
9.79846969931564
 23
5.658837479317775
 33
0.0
 14
5.518469699315642
 24
6.158837479317782
 34
0.0
 50
0.0000000000000035
100
AcDbRotatedDimension
1001
ACAD
1000
DSTYLE
1002
{
1070
    74
1070
     0
1070
   271
1070
     3
1070
   144
1040
1.0
1070
   340
1005
5F
1070
    47
1040
0.0
1070
    48
1040
0.0
1002
}
  0
DIMENSION
  5
1A57
330
1B
100
AcDbEntity
 67
     1
  8
Dimensions
  6
Continuous
 62
     7
370
    25
100
AcDbDimension
  2
*D41
 10
5.518469699315642
 20
3.786654312956727
 30
0.0
 11
6.100269620885942
 21
3.786654312956727
 31
0.0
 70
   160
  1
<>
 71
     5
 42
3.965
  3
ANSI - ALIGNED
100
AcDbAlignedDimension
 13
9.483469699315643
 23
5.658837479317775
 33
0.0
 14
5.518469699315642
 24
6.158837479317782
 34
0.0
 50
180.0
100
AcDbRotatedDimension
1001
ACAD
1000
DSTYLE
1002
{
1070
    74
1070
     0
1070
   271
1070
     3
1070
   144
1040
1.0
1070
   340
1005
5F
1070
    47
1040
0.0
1070
    48
1040
0.0
1002
}
  0
DIMENSION
  5
1AFB
330
1B
100
AcDbEntity
 67
     1
  8
Dimensions
  6
Continuous
 62
     7
370
    25
100
AcDbDimension
  2
*D42
 10
5.518469699315642
 20
4.026930595812604
 30
0.0
 11
7.203356213154192
 21
4.026930595812604
 31
0.0
 70
   160
  1
<>
 71
     5
 42
3.334999999999998
  3
ANSI - ALIGNED
100
AcDbAlignedDimension
 13
8.85346969931564
 23
5.658837479317775
 33
0.0
 14
5.518469699315642
 24
6.158837479317782
 34
0.0
 50
0.0000000000000035
100
AcDbRotatedDimension
1001
ACAD
1000
DSTYLE
1002
{
1070
    74
1070
     0
1070
   271
1070
     3
1070
   144
1040
1.0
1070
   340
1005
5F
1070
    47
1040
0.0
1070
    48
1040
0.0
1002
}
  0
DIMENSION
  5
1B9F
330
1B
100
AcDbEntity
 67
     1
  8
Dimensions
  6
Continuous
 62
     7
370
    25
100
AcDbDimension
  2
*D43
 10
5.518469699315642
 20
4.25628522944776
 30
0.0
 11
7.738517035145719
 21
4.25628522944776
 31
0.0
 70
   160
  1
<>
 71
     5
 42
3.02
  3
ANSI - ALIGNED
100
AcDbAlignedDimension
 13
8.538469699315642
 23
5.658837479317775
 33
0.0
 14
5.518469699315642
 24
6.158837479317782
 34
0.0
 50
0.0000000000000035
100
AcDbRotatedDimension
1001
ACAD
1000
DSTYLE
1002
{
1070
    74
1070
     0
1070
   271
1070
     3
1070
   144
1040
1.0
1070
   340
1005
5F
1070
    47
1040
0.0
1070
    48
1040
0.0
1002
}
  0
DIMENSION
  5
1C43
330
1B
100
AcDbEntity
 67
     1
  8
Dimensions
  6
Continuous
 62
     7
370
    25
100
AcDbDimension
  2
*D44
 10
5.518469699315642
 20
4.474718213862193
 30
0.0
 11
7.236121161439386
 21
4.474718213862193
 31
0.0
 70
   160
  1
<>
 71
     5
 42
2.704999999999999
  3
ANSI - ALIGNED
100
AcDbAlignedDimension
 13
8.223469699315641
 23
5.658837479317775
 33
0.0
 14
5.518469699315642
 24
6.158837479317782
 34
0.0
 50
0.0000000000000035
100
AcDbRotatedDimension
1001
ACAD
1000
DSTYLE
1002
{
1070
    74
1070
     0
1070
   271
1070
     3
1070
   144
1040
1.0
1070
   340
1005
5F
1070
    47
1040
0.0
1070
    48
1040
0.0
1002
}
  0
DIMENSION
  5
1CE7
330
1B
100
AcDbEntity
 67
     1
  8
Dimensions
  6
Continuous
 62
     7
370
    25
100
AcDbDimension
  2
*D45
 10
5.518469699315642
 20
4.682229549055903
 30
0.0
 11
6.802430605182215
 21
4.682229549055903
 31
0.0
 70
   160
  1
<>
 71
     5
 42
2.389999999999999
  3
ANSI - ALIGNED
100
AcDbAlignedDimension
 13
7.908469699315642
 23
5.658837479317775
 33
0.0
 14
5.518469699315642
 24
6.158837479317782
 34
0.0
 50
0.0000000000000175
100
AcDbRotatedDimension
1001
ACAD
1000
DSTYLE
1002
{
1070
    74
1070
     0
1070
   271
1070
     3
1070
   144
1040
1.0
1070
   340
1005
5F
1070
    47
1040
0.0
1070
    48
1040
0.0
1002
}
  0
DIMENSION
  5
1D8B
330
1B
100
AcDbEntity
 67
     1
  8
Dimensions
  6
Continuous
 62
     7
370
    25
100
AcDbDimension
  2
*D46
 10
5.518469699315642
 20
4.922505831911779
 30
0.0
 11
7.017688172871416
 21
4.922505831911779
 31
0.0
 70
   160
  1
<>
 71
     5
 42
2.074999999999999
  3
ANSI - ALIGNED
100
AcDbAlignedDimension
 13
7.593469699315641
 23
5.658837479317775
 33
0.0
 14
5.518469699315642
 24
6.158837479317782
 34
0.0
 50
180.0
100
AcDbRotatedDimension
1001
ACAD
1000
DSTYLE
1002
{
1070
    74
1070
     0
1070
   271
1070
     3
1070
   144
1040
1.0
1070
   340
1005
5F
1070
    47
1040
0.0
1070
    48
1040
0.0
1002
}
  0
DIMENSION
  5
1E2F
330
1B
100
AcDbEntity
 67
     1
  8
Dimensions
  6
Continuous
 62
     7
370
    25
100
AcDbDimension
  2
*D47
 10
5.518469699315642
 20
5.162782114767658
 30
0.0
 11
6.264094362311919
 21
5.162782114767658
 31
0.0
 70
   160
  1
<>
 71
     5
 42
1.25
  3
ANSI - ALIGNED
100
AcDbAlignedDimension
 13
6.768469699315643
 23
5.658837479317775
 33
0.0
 14
5.518469699315642
 24
6.158837479317782
 34
0.0
 50
0.0000000000000175
100
AcDbRotatedDimension
1001
ACAD
1000
DSTYLE
1002
{
1070
    74
1070
     0
1070
   271
1070
     3
1070
   144
1040
1.0
1070
   340
1005
5F
1070
    47
1040
0.0
1070
    48
1040
0.0
1002
}
  0
DIMENSION
  5
1ED3
330
1B
100
AcDbEntity
 67
     1
  8
Dimensions
  6
Continuous
 62
     7
370
    25
100
AcDbDimension
  2
*D48
 10
5.518469699315642
 20
5.468588292947863
 30
0.0
 11
5.019026327474489
 21
5.468588292947863
 31
0.0
 70
   160
  1
<>
 71
     5
 42
0.4999999999999992
  3
ANSI - ALIGNED
100
AcDbAlignedDimension
 13
6.018469699315641
 23
5.658837479317775
 33
0.0
 14
5.518469699315642
 24
6.158837479317782
 34
0.0
 50
180.0
100
AcDbRotatedDimension
1001
ACAD
1000
DSTYLE
1002
{
1070
    74
1070
     0
1070
   271
1070
     3
1070
   144
1040
1.0
1070
   340
1005
5F
1070
    47
1040
0.0
1070
    48
1040
0.0
1002
}
  0
DIMENSION
  5
1F77
330
1B
100
AcDbEntity
 67
     1
  8
Dimensions
  6
Continuous
 62
     7
370
    25
100
AcDbDimension
  2
*D49
 10
5.768469699315642
 20
5.916156441697067
 30
0.0
 11
4.808712598885732
 21
5.916156441697067
 31
0.0
 70
   160
  1
<>
 71
     5
 42
0.4999999999999992
  3
ANSI - ALIGNED
100
AcDbAlignedDimension
 13
6.268469699315641
 23
7.093837479317775
 33
0.0
 14
5.768469699315642
 24
7.093837479317775
 34
0.0
 50
180.0
100
AcDbRotatedDimension
1001
ACAD
1000
DSTYLE
1002
{
1070
    74
1070
     0
1070
   271
1070
     3
1070
   144
1040
1.0
1070
   340
1005
5F
1070
    47
1040
0.0
1070
    48
1040
0.0
1002
}
  0
DIMENSION
  5
201B
330
1B
100
AcDbEntity
 67
     1
  8
Dimensions
  6
Continuous
 62
     7
370
    25
100
AcDbDimension
  2
*D50
 10
6.101057966135185
 20
8.785221680861685
 30
0.0
 11
5.247662132150308
 21
8.493885127087756
 31
0.0
 70
   163
  1
<>
 71
     5
 42
0.2000000000000028
  3
ANSI - ALIGNED
100
AcDbDiametricDimension
 15
5.935881432496099
 25
8.672453277773865
 35
0.0
 40
0.0
1001
ACAD
1000
DSTYLE
1002
{
1070
   271
1070
     3
1070
   144
1040
1.0
1070
   340
1005
5F
1070
    47
1040
0.0
1070
    48
1040
0.0
1002
}
  0
DIMENSION
  5
208A
330
1B
100
AcDbEntity
 67
     1
  8
Dimensions
  6
Continuous
 62
     7
370
    25
100
AcDbDimension
  2
*D51
 10
13.70200054874505
 20
10.31118341250819
 30
0.0
 11
15.33428617076819
 21
11.31384996561134
 31
0.0
 70
   163
  1
<>
 71
     5
 42
0.367999999999995
  3
ANSI - ALIGNED
100
AcDbDiametricDimension
 15
13.98493884988623
 25
10.54649154612736
 35
0.0
 40
0.0
1001
ACAD
1000
DSTYLE
1002
{
1070
   271
1070
     3
1070
   144
1040
1.0
1070
   340
1005
5F
1070
    47
1040
0.0
1070
    48
1040
0.0
1002
}
  0
DIMENSION
  5
20F9
330
1B
100
AcDbEntity
 67
     1
  8
Dimensions
  6
Continuous
 62
     7
370
    25
100
AcDbDimension
  2
*D52
 10
6.484732391601433
 20
10.47127686866504
 30
0.0
 11
4.747699642388576
 21
10.07760402948903
 31
0.0
 70
   163
  1
<>
 71
     5
 42
0.2949999999999964
  3
ANSI - ALIGNED
100
AcDbDiametricDimension
 15
6.202207007029848
 25
10.3863980899705
 35
0.0
 40
0.0
1001
ACAD
1000
DSTYLE
1002
{
1070
   271
1070
     3
1070
   144
1040
1.0
1070
   340
1005
5F
1070
    47
1040
0.0
1070
    48
1040
0.0
1002
}
  0
DIMENSION
  5
2168
330
1B
100
AcDbEntity
 67
     1
  8
Dimensions
  6
Continuous
 62
     7
370
    25
100
AcDbDimension
  2
*D53
 10
14.35335488870747
 20
12.20591783894442
 30
0.0
 11
15.33103636011749
 21
12.87795919331229
 31
0.0
 70
   163
  1
<>
 71
     5
 42
0.1359999999999992
  3
ANSI - ALIGNED
100
AcDbDiametricDimension
 15
14.43958450992379
 25
12.31108652451618
 35
0.0
 40
0.0
1001
ACAD
1000
DSTYLE
1002
{
1070
   271
1070
     3
1070
   144
1040
1.0
1070
   340
1005
5F
1070
    47
1040
0.0
1070
    48
1040
0.0
1002
}
  0
DIMENSION
  5
21D7
330
1B
100
AcDbEntity
 67
     1
  8
Dimensions
  6
Continuous
 62
     7
370
    25
100
AcDbDimension
  2
*D54
 10
6.461511476248428
 20
11.79571402009375
 30
0.0
 11
4.903983695450266
 21
12.07944920391165
 31
0.0
 70
   163
  1
<>
 71
     5
 42
0.2500000000000009
  3
ANSI - ALIGNED
100
AcDbDiametricDimension
 15
6.225427922382849
 25
11.87796093854178
 35
0.0
 40
0.0
1001
ACAD
1000
DSTYLE
1002
{
1070
   271
1070
     3
1070
   144
1040
1.0
1070
   340
1005
5F
1070
    47
1040
0.0
1070
    48
1040
0.0
1002
}
  0
DIMENSION
  5
2246
330
1B
100
AcDbEntity
 67
     1
  8
Dimensions
  6
Continuous
 62
     7
370
    25
100
AcDbDimension
  2
*D55
 10
6.431941772809109
 20
10.94222533270591
 30
0.0
 11
4.912438641781124
 21
11.34860955259581
 31
0.0
 70
   163
  1
<>
 71
     5
 42
0.2000000000000028
  3
ANSI - ALIGNED
100
AcDbDiametricDimension
 15
6.25499762582217
 25
11.03544962592965
 35
0.0
 40
0.0
1001
ACAD
1000
DSTYLE
1002
{
1070
   271
1070
     3
1070
   144
1040
1.0
1070
   340
1005
5F
1070
    47
1040
0.0
1070
    48
1040
0.0
1002
}
  0
DIMENSION
  5
22B5
330
1B
100
AcDbEntity
 67
     1
  8
Dimensions
  6
Continuous
 62
     7
370
    25
100
AcDbDimension
  2
*D56
 10
6.439965063016509
 20
9.40259543701469
 30
0.0
 11
4.74769964238858
 21
9.746777652216875
 31
0.0
 70
   163
  1
<>
 71
     5
 42
0.1999999999999988
  3
ANSI - ALIGNED
100
AcDbDiametricDimension
 15
6.246974335614773
 25
9.45507952162087
 35
0.0
 40
0.0
1001
ACAD
1000
DSTYLE
1002
{
1070
   271
1070
     3
1070
   144
1040
1.0
1070
   340
1005
5F
1070
    47
1040
0.0
1070
    48
1040
0.0
1002
}
  0
DIMENSION
  5
2324
330
1B
100
AcDbEntity
 67
     1
  8
Dimensions
  6
Continuous
 62
     7
370
    25
100
AcDbDimension
  2
*D57
 10
10.12745318067336
 20
10.23326812334705
 30
0.0
 11
9.222561669267166
 21
12.98539376656543
 31
0.0
 70
   163
  1
<>
 71
     5
 42
0.3969999999999967
  3
ANSI - ALIGNED
100
AcDbDiametricDimension
 15
10.05948621795794
 25
10.62440683528852
 35
0.0
 40
0.0
1001
ACAD
1000
DSTYLE
1002
{
1070
   271
1070
     3
1070
   144
1040
1.0
1070
   340
1005
5F
1070
    47
1040
0.0
1070
    48
1040
0.0
1002
}
  0
DIMENSION
  5
2393
330
1B
100
AcDbEntity
 67
     1
  8
Dimensions
  6
Continuous
 62
     7
370
    25
100
AcDbDimension
  2
*D58
 10
7.981985124083525
 20
10.25116567632652
 30
0.0
 11
7.218645757529303
 21
12.84609844981925
 31
0.0
 70
   163
  1
<>
 71
     5
 42
0.397000000000002
  3
ANSI - ALIGNED
100
AcDbDiametricDimension
 15
7.804954274547752
 25
10.60650928230902
 35
0.0
 40
0.0
1001
ACAD
1000
DSTYLE
1002
{
1070
   271
1070
     3
1070
   144
1040
1.0
1070
   340
1005
5F
1070
    47
1040
0.0
1070
    48
1040
0.0
1002
}
  0
DIMENSION
  5
2402
330
1B
100
AcDbEntity
 67
     1
  8
Dimensions
  6
Continuous
 62
     7
370
    25
100
AcDbDimension
  2
*D59
 10
13.72473073895363
 20
11.65551250199598
 30
0.0
 11
13.03577094508976
 21
13.17692482709142
 31
0.0
 70
   163
  1
<>
 71
     5
 42
0.3680000000000021
  3
ANSI - ALIGNED
100
AcDbDiametricDimension
 15
13.66220865967766
 25
12.01816245663958
 35
0.0
 40
0.0
1001
ACAD
1000
DSTYLE
1002
{
1070
   271
1070
     3
1070
   144
1040
1.0
1070
   340
1005
5F
1070
    47
1040
0.0
1070
    48
1040
0.0
1002
}
  0
DIMENSION
  5
2471
330
1B
100
AcDbEntity
 67
     1
  8
Dimensions
  6
Continuous
 62
     7
370
    25
100
AcDbDimension
  2
*D60
 10
5.040869626331287
 20
7.093837479317775
 30
0.0
 11
5.040869626331286
 21
6.57649964294326
 31
0.0
 70
   160
  1
<>
 71
     5
 42
0.2499999999999991
  3
ANSI - ALIGNED
100
AcDbAlignedDimension
 13
5.768469699315642
 23
7.343837479317774
 33
0.0
 14
5.768469699315642
 24
7.093837479317775
 34
0.0
 50
270.0
100
AcDbRotatedDimension
1001
ACAD
1000
DSTYLE
1002
{
1070
    74
1070
     0
1070
   271
1070
     3
1070
   144
1040
1.0
1070
   340
1005
5F
1070
    47
1040
0.0
1070
    48
1040
0.0
1002
}
  0
DIMENSION
  5
251B
330
1B
100
AcDbEntity
 67
     1
  8
Dimensions
  6
Continuous
 62
     7
370
    25
100
AcDbDimension
  2
*D61
 10
5.518469699315642
 20
3.360709993348586
 30
0.0
 11
7.891420127143299
 21
3.360709993348586
 31
0.0
 70
   160
  1
<>
 71
     5
 42
4.575
  3
ANSI - ALIGNED
100
AcDbAlignedDimension
 13
10.09346969931564
 23
6.496837479317784
 33
0.0
 14
5.518469699315642
 24
6.158837479317782
 34
0.0
 50
0.0000000000000175
100
AcDbRotatedDimension
1001
ACAD
1000
DSTYLE
1002
{
1070
    74
1070
     0
1070
   271
1070
     3
1070
   144
1040
1.0
1070
   340
1005
5F
1070
    47
1040
0.0
1070
    48
1040
0.0
1002
}
  0
DIMENSION
  5
25BF
330
1B
100
AcDbEntity
 67
     1
  8
Dimensions
  6
Continuous
 62
     7
370
    25
100
AcDbDimension
  2
*D62
 10
5.51846969931564
 20
13.59481077732994
 30
0.0
 11
6.758847023050714
 21
13.59481077732994
 31
0.0
 70
   160
  1
<>
 71
     5
 42
2.374999999999999
  3
ANSI - ALIGNED
100
AcDbAlignedDimension
 13
7.893469699315639
 23
10.42883747931777
 33
0.0
 14
5.51846969931564
 24
12.58683747931778
 34
0.0
 50
0.0000000000000175
100
AcDbRotatedDimension
1001
ACAD
1000
DSTYLE
1002
{
1070
    74
1070
     0
1070
   271
1070
     3
1070
   144
1040
1.0
1070
   340
1005
5F
1070
    47
1040
0.0
1070
    48
1040
0.0
1002
}
  0
DIMENSION
  5
2663
330
1B
100
AcDbEntity
 67
     1
  8
Dimensions
  6
Continuous
 62
     7
370
    25
100
AcDbDimension
  2
*D63
 10
5.51846969931564
 20
14.39786110136502
 30
0.0
 11
8.04732869615972
 21
14.39786110136502
 31
0.0
 70
   160
  1
<>
 71
     5
 42
4.574999999999998
  3
ANSI - ALIGNED
100
AcDbAlignedDimension
 13
10.09346969931564
 23
10.42883747931778
 33
0.0
 14
5.51846969931564
 24
12.58683747931778
 34
0.0
 50
0.0000000000000175
100
AcDbRotatedDimension
1001
ACAD
1000
DSTYLE
1002
{
1070
    74
1070
     0
1070
   271
1070
     3
1070
   144
1040
1.0
1070
   340
1005
5F
1070
    47
1040
0.0
1070
    48
1040
0.0
1002
}
  0
DIMENSION
  5
2707
330
1B
100
AcDbEntity
 67
     1
  8
Dimensions
  6
Continuous
 62
     7
370
    25
100
AcDbDimension
  2
*D64
 10
18.00911030507998
 20
6.15883747931778
 30
0.0
 11
18.00911030507998
 21
10.8576499677766
 31
0.0
 70
   160
  1
<>
 71
     5
 42
5.677999999999999
  3
ANSI - ALIGNED
100
AcDbAlignedDimension
 13
13.69346969931564
 23
11.83683747931778
 33
0.0
 14
14.66846969931564
 24
6.158837479317781
 34
0.0
 50
90.0
100
AcDbRotatedDimension
1001
ACAD
1000
DSTYLE
1002
{
1070
    74
1070
     0
1070
   271
1070
     3
1070
   144
1040
1.0
1070
   340
1005
5F
1070
    47
1040
0.0
1070
    48
1040
0.0
1002
}
  0
DIMENSION
  5
27AB
330
1B
100
AcDbEntity
 67
     1
  8
Dimensions
  6
Continuous
 62
     7
370
    25
100
AcDbDimension
  2
*D65
 10
3.189404550248738
 20
6.158837479317781
 30
0.0
 11
3.189404550248737
 21
6.995695146479921
 31
0.0
 70
   160
  1
<>
 71
     5
 42
1.539999999999996
  3
ANSI - ALIGNED
100
AcDbAlignedDimension
 13
6.018469699315641
 23
7.698837479317776
 33
0.0
 14
5.518469699315642
 24
6.158837479317781
 34
0.0
 50
90.0
100
AcDbRotatedDimension
1001
ACAD
1000
DSTYLE
1002
{
1070
    74
1070
     0
1070
   271
1070
     3
1070
   144
1040
1.0
1070
   340
1005
5F
1070
    47
1040
0.0
1070
    48
1040
0.0
1002
}
  0
MTEXT
  5
284F
330
1B
100
AcDbEntity
 67
     1
  8
Sketch Lines
 62
   177
370
   200
100
AcDbMText
 10
15.34032476245046
 20
13.11905818581214
 30
0.0
 40
0.1200787429734478
 41
0.0
 71
     1
 72
     1
  1
{7 x}
  7
DEFAULT-ANSI
 73
     1
 44
0.8000000119209289
  0
MTEXT
  5
2850
330
1B
100
AcDbEntity
 67
     1
  8
Sketch Lines
 62
   177
370
     5
100
AcDbMText
 10
15.70605551108759
 20
12.94182370731004
 30
0.0
 40
0.1200787429734478
 41
0.0
 71
     1
 72
     1
  1
{typ.}
  7
DEFAULT-ANSI
 73
     1
 44
0.8000000119209289
  0
MTEXT
  5
2851
330
1B
100
AcDbEntity
 67
     1
  8
Sketch Lines
 62
   177
370
     5
100
AcDbMText
 10
12.90161828831364
 20
13.42181062113143
 30
0.0
 40
0.1200787429734478
 41
0.0
 71
     1
 72
     1
  1
{6 x}
  7
DEFAULT-ANSI
 73
     1
 44
0.8000000119209289
  0
MTEXT
  5
2852
330
1B
100
AcDbEntity
 67
     1
  8
Sketch Lines
 62
   177
370
     5
100
AcDbMText
 10
12.92725721015365
 20
13.055480101489
 30
0.0
 40
0.1200787429734478
 41
0.0
 71
     1
 72
     1
  1
{typ.}
  7
DEFAULT-ANSI
 73
     1
 44
0.8000000119209289
  0
MTEXT
  5
2853
330
1B
100
AcDbEntity
 67
     1
  8
Sketch Lines
 62
   177
370
     5
100
AcDbMText
 10
4.104009011488276
 20
9.808717524710905
 30
0.0
 40
0.1200787429734478
 41
0.0
 71
     1
 72
     1
  1
{16 x}
  7
DEFAULT-ANSI
 73
     1
 44
0.8000000119209289
  0
MTEXT
  5
2854
330
1B
100
AcDbEntity
 67
     1
  8
Sketch Lines
 62
   177
370
     5
100
AcDbMText
 10
4.594138727356003
 20
9.64430250749241
 30
0.0
 40
0.1200787429734478
 41
0.0
 71
     1
 72
     1
  1
{typ.}
  7
DEFAULT-ANSI
 73
     1
 44
0.8000000119209289
  0
MTEXT
  5
2855
330
1B
100
AcDbEntity
 67
     1
  8
Sketch Lines
 62
   177
370
     5
100
AcDbMText
 10
4.439347296491531
 20
9.100979145981114
 30
0.0
 40
0.1200787429734478
 41
0.0
 71
     1
 72
     1
  1
{15 x}
  7
DEFAULT-ANSI
 73
     1
 44
0.8000000119209289
  0
MTEXT
  5
2856
330
1B
100
AcDbEntity
 67
     1
  8
Sketch Lines
 62
   177
370
     5
100
AcDbMText
 10
4.897249293182794
 20
8.941156582072283
 30
0.0
 40
0.1200787429734478
 41
0.0
 71
     1
 72
     1
  1
{typ}
  7
DEFAULT-ANSI
 73
     1
 44
0.8000000119209289
  0
MTEXT
  5
2857
330
1B
100
AcDbEntity
 67
     1
  8
Sketch Lines
 62
   177
370
     5
100
AcDbMText
 10
4.614146751683956
 20
8.559132905210098
 30
0.0
 40
0.1200787429734478
 41
0.0
 71
     1
 72
     1
  1
{23 x}
  7
DEFAULT-ANSI
 73
     1
 44
0.8000000119209289
  0
MTEXT
  5
2858
330
1B
100
AcDbEntity
 67
     1
  8
Sketch Lines
 62
   177
370
     5
100
AcDbMText
 10
5.076480113744286
 20
8.407976025825696
 30
0.0
 40
0.1200787429734478
 41
0.0
 71
     1
 72
     1
  1
{typ.}
  7
DEFAULT-ANSI
 73
     1
 44
0.8000000119209289
  0
MTEXT
  5
2859
330
1B
100
AcDbEntity
 67
     1
  8
Sketch Lines
 62
   177
370
     5
100
AcDbMText
 10
4.242507515888066
 20
5.985159735714842
 30
0.0
 40
0.1200787429734478
 41
0.0
 71
     1
 72
     1
  1
{23 x}
  7
DEFAULT-ANSI
 73
     1
 44
0.8000000119209289
  0
MTEXT
  5
285A
330
1B
100
AcDbEntity
 67
     1
  8
Sketch Lines
 62
   177
370
     5
100
AcDbMText
 10
4.757515299311911
 20
5.833922310786026
 30
0.0
 40
0.1200787429734478
 41
0.0
 71
     1
 72
     1
  1
{typ.}
  7
DEFAULT-ANSI
 73
     1
 44
0.8000000119209289
  0
MTEXT
  5
285B
330
1B
100
AcDbEntity
 67
     1
  8
Sketch Lines
 62
   177
370
     5
100
AcDbMText
 10
17.201109888333
 20
2.425222818169015
 30
0.0
 40
0.1200787429734478
 41
0.0
 71
     1
 72
     1
  1
{all units inches\Pall rectangular holes .250" x .500"}
  7
DEFAULT-ANSI
 73
     1
 44
0.8000000119209289
  0
MTEXT
  5
285C
330
1B
100
AcDbEntity
 67
     1
  8
Sketch Lines
 62
   177
370
     5
100
AcDbMText
 10
4.802524339479943
 20
6.390490817205899
 30
0.0
 40
0.1200787429734478
 41
0.0
 71
     1
 72
     1
  1
{23 x}
  7
DEFAULT-ANSI
 11
0.0000000000002967
 21
0.9999999999999998
 31
0.0
 73
     1
 44
0.8000000119209289
  0
MTEXT
  5
285D
330
1B
100
AcDbEntity
 67
     1
  8
Sketch Lines
 62
   177
370
     5
100
AcDbMText
 10
5.166087031706905
 20
6.432765550328023
 30
0.0
 40
0.1200787429734478
 41
0.0
 71
     1
 72
     1
  1
{typ.}
  7
DEFAULT-ANSI
 11
0.0000000000002967
 21
0.9999999999999998
 31
0.0
 73
     1
 44
0.8000000119209289
  0
ENDSEC
  0
SECTION
  2
OBJECTS
  0
DICTIONARY
  5
C
330
0
100
AcDbDictionary
281
     1
  3
ACAD_GROUP
350
D
  3
ACAD_LAYOUT
350
1A
  3
ACAD_MLINESTYLE
350
17
  3
ACAD_PLOTSETTINGS
350
19
  3
ACAD_PLOTSTYLENAME
350
E
  3
AcDbVariableDictionary
350
2864
  3
DWGPROPS
350
2863
  0
DICTIONARY
  5
D
102
{ACAD_REACTORS
330
C
102
}
330
C
100
AcDbDictionary
281
     1
  0
DICTIONARY
  5
1A
102
{ACAD_REACTORS
330
C
102
}
330
C
100
AcDbDictionary
281
     1
  3
Layout1
350
1E
  3
Layout2
350
26
  3
Model
350
22
  0
DICTIONARY
  5
17
102
{ACAD_REACTORS
330
C
102
}
330
C
100
AcDbDictionary
281
     1
  3
Standard
350
18
  0
DICTIONARY
  5
19
102
{ACAD_REACTORS
330
C
102
}
330
C
100
AcDbDictionary
281
     1
  0
ACDBDICTIONARYWDFLT
  5
E
102
{ACAD_REACTORS
330
C
102
}
330
C
100
AcDbDictionary
281
     1
  3
Normal
350
F
100
AcDbDictionaryWithDefault
340
F
  0
DICTIONARY
  5
2864
102
{ACAD_REACTORS
330
C
102
}
330
C
100
AcDbDictionary
281
     1
  3
DIMASSOC
350
2866
  3
HIDETEXT
350
2865
  0
XRECORD
  5
2863
102
{ACAD_REACTORS
330
C
102
}
330
C
100
AcDbXrecord
280
     1
  1
DWGPROPS COOKIE
  2

  3

  4
ladyada
  6

  7

  8

  9

300
=
301
=
302
=
303
=
304
=
305
=
306
=
307
=
308
=
309
=
 40
0.0000964351851852
 41
2453432.903468935
 42
2453432.903468935
  1

 90
        0
  0
LAYOUT
  5
1E
102
{ACAD_REACTORS
330
1A
102
}
330
1A
100
AcDbPlotSettings
  1

  2

  4

  6

 40
0.0
 41
0.0
 42
0.0
 43
0.0
 44
0.0
 45
0.0
 46
0.0
 47
0.0
 48
0.0
 49
0.0
140
0.0
141
0.0
142
1.0
143
1.0
 70
   688
 72
     0
 73
     0
 74
     5
  7

 75
    16
147
1.0
148
0.0
149
0.0
100
AcDbLayout
  1
Layout1
 70
     1
 71
     1
 10
0.0
 20
0.0
 11
27.94
 21
21.59
 12
0.0
 22
0.0
 32
0.0
 14
0.0
 24
0.0
 34
0.0
 15
27.94
 25
21.59
 35
0.0
146
0.0
 13
0.0
 23
0.0
 33
0.0
 16
1.0
 26
0.0
 36
0.0
 17
0.0
 27
1.0
 37
0.0
 76
     0
330
1B
  0
LAYOUT
  5
26
102
{ACAD_REACTORS
330
1A
102
}
330
1A
100
AcDbPlotSettings
  1

  2

  4

  6

 40
0.0
 41
0.0
 42
0.0
 43
0.0
 44
0.0
 45
0.0
 46
0.0
 47
0.0
 48
0.0
 49
0.0
140
0.0
141
0.0
142
1.0
143
1.0
 70
   688
 72
     0
 73
     0
 74
     5
  7

 75
    16
147
1.0
148
0.0
149
0.0
100
AcDbLayout
  1
Layout2
 70
     1
 71
     2
 10
0.0
 20
0.0
 11
12.0
 21
9.0
 12
0.0
 22
0.0
 32
0.0
 14
0.0
 24
0.0
 34
0.0
 15
0.0
 25
0.0
 35
0.0
146
0.0
 13
0.0
 23
0.0
 33
0.0
 16
1.0
 26
0.0
 36
0.0
 17
0.0
 27
1.0
 37
0.0
 76
     0
330
23
  0
LAYOUT
  5
22
102
{ACAD_REACTORS
330
1A
102
}
330
1A
100
AcDbPlotSettings
  1

  2

  4

  6

 40
0.0
 41
0.0
 42
0.0
 43
0.0
 44
0.0
 45
0.0
 46
0.0
 47
0.0
 48
0.0
 49
0.0
140
0.0
141
0.0
142
1.0
143
1.0
 70
  1712
 72
     0
 73
     0
 74
     0
  7

 75
     0
147
1.0
148
0.0
149
0.0
100
AcDbLayout
  1
Model
 70
     1
 71
     0
 10
0.0
 20
0.0
 11
12.0
 21
9.0
 12
0.0
 22
0.0
 32
0.0
 14
0.0
 24
0.0
 34
0.0
 15
0.0
 25
0.0
 35
0.0
146
0.0
 13
0.0
 23
0.0
 33
0.0
 16
1.0
 26
0.0
 36
0.0
 17
0.0
 27
1.0
 37
0.0
 76
     0
330
1F
  0
MLINESTYLE
  5
18
102
{ACAD_REACTORS
330
17
102
}
330
17
100
AcDbMlineStyle
  2
STANDARD
 70
     0
  3

 62
   256
 51
90.0
 52
90.0
 71
     2
 49
0.5
 62
   256
  6
BYLAYER
 49
-0.5
 62
   256
  6
BYLAYER
  0
ACDBPLACEHOLDER
  5
F
102
{ACAD_REACTORS
330
E
102
}
330
E
  0
DICTIONARYVAR
  5
2866
102
{ACAD_REACTORS
330
2864
102
}
330
2864
100
DictionaryVariables
280
     0
  1
2
  0
DICTIONARYVAR
  5
2865
102
{ACAD_REACTORS
330
2864
102
}
330
2864
100
DictionaryVariables
280
     0
  1
1
  0
ENDSEC
  0
EOF
